<?xml version="1.0" standalone="no"?>
<!DOCTYPE svg PUBLIC "-//W3C//DTD SVG 1.1//EN" "http://www.w3.org/Graphics/SVG/1.1/DTD/svg11.dtd" >
<svg xmlns="http://www.w3.org/2000/svg">
<metadata></metadata>
<defs>
<font id="icomoonregular" horiz-adv-x="512" >
<font-face units-per-em="512" ascent="480" descent="-32" />
<missing-glyph horiz-adv-x="500" />
<glyph unicode="&#xd;" horiz-adv-x="170" />
<glyph unicode="&#xe000;" horiz-adv-x="500" d="M0 0v0v0v0v0z" />
<glyph unicode="&#xe001;" d="M512 185l-256 198l-256 -198v81l256 199l256 -199v-81zM448 192v-192h-128v128h-128v-128h-128v192l192 144z" />
<glyph unicode="&#xe002;" d="M512 176l-96 96v144h-64v-80l-96 96l-256 -256v-16h64v-160h160v96h64v-96h160v160h64v16z" />
<glyph unicode="&#xe003;" d="M256 448l-256 -256h64l192 192l192 -192h64zM96 160v-160h128v128h64v-128h128v160l-160 160z" />
<glyph unicode="&#xe004;" d="M256 416l-256 -224h64v-160h128v96h128v-96h128v160h64zM240 192h-48v48h48v-48zM240 272h-48v48h48v-48zM320 192h-48v48h48v-48zM320 272h-48v48h48v-48z" />
<glyph unicode="&#xe005;" d="M448 192v-192h-384v192h64v-128h256v128h64zM512 185l-256 198l-256 -198v81l256 199l256 -199v-81z" />
<glyph unicode="&#xe006;" d="M256 448l-256 -256l48 -48l48 48l32 -192h128h128l32 192l48 -48l48 48zM256 243q-19 0 -32 13t-13 32t13 32t32 13t32 -13t13 -32t-13 -32t-32 -13z" />
<glyph unicode="&#xe007;" d="M256 448l-256 -256l48 -48l48 48l32 -192h96v96h64v-96h96l32 192l48 -48l48 48zM256 243q-19 0 -32 13t-13 32t13 32t32 13t32 -13t13 -32t-13 -32t-32 -13z" />
<glyph unicode="&#xe008;" d="M256 480l-256 -192v-96l64 48v-240q0 -13 9.5 -22.5t22.5 -9.5h320q13 0 22.5 9.5t9.5 22.5v240l64 -48v96zM416 0h-96v160h-128v-160h-96v264l160 120l160 -120v-264z" />
<glyph unicode="&#xe009;" d="M256 480l-256 -192v-96l64 48v-240q0 -13 9.5 -22.5t22.5 -9.5h320q13 0 22.5 9.5t9.5 22.5v240l64 -48v96zM416 0h-160v160h-96v-160h-64v264l160 120l160 -120v-264zM288 256h64v-64h-64v64z" />
<glyph unicode="&#xe00a;" d="M128 416l-128 -160h135l128 160h-135zM0 224h128v-224h-128v224zM320 416l-160 -192v-224h128v96q0 13 9.5 22.5t22.5 9.5t22.5 -9.5t9.5 -22.5v-96h128v224z" />
<glyph unicode="&#xe00b;" d="M0 -32h256v512h-256v-512zM160 416h64v-64h-64v64zM160 288h64v-64h-64v64zM160 160h64v-64h-64v64zM32 416h64v-64h-64v64zM32 288h64v-64h-64v64zM32 160h64v-64h-64v64zM288 320h224v-32h-224v32zM288 -32h64v128h96v-128h64v288h-224v-288z" />
<glyph unicode="&#xe00c;" d="M448 352v64h-448v-352q0 -13 9.5 -22.5t22.5 -9.5h432q20 0 34 14t14 34v272h-64zM416 64h-384v320h384v-320zM64 320h320v-32h-320v32zM256 256h128v-32h-128v32zM256 192h128v-32h-128v32zM256 128h96v-32h-96v32zM64 256h160v-160h-160v160z" />
<glyph unicode="&#xe00d;" d="M432 480q33 0 56.5 -23.5t23.5 -56.5q0 -27 -16 -48l-32 -32l-112 112l32 32q21 16 48 16zM32 112l-32 -144l144 32l296 296l-112 112zM358 298l-224 -224l-28 28l224 224z" />
<glyph unicode="&#xe00e;" d="M397 365q-20 -12 -40.5 -15t-29.5 6q-14 14 -2.5 45.5t42 61.5t62 42t45.5 -2q9 -9 6 -29.5t-15 -40.5q20 12 40.5 15t29.5 -6q14 -14 2 -45.5t-42 -62t-61.5 -42t-45.5 2.5q-9 9 -6 29.5t15 40.5zM196 73l226 226q20 -12 40 -16l-238 -238l-224 -77l77 224l238 238 q1 -8 4 -16q5 -12 12 -24l-226 -226l27 -27l221 221q8 -11 17.5 -20t19.5 -17l-221 -221z" />
<glyph unicode="&#xe00f;" d="M192 160l64 32l224 224l-32 32l-224 -224zM145 46q-12 25 -27 40t-40 27l50 136l64 39l192 192h-96l-192 -192l-96 -320l320 96l192 192v96l-192 -192l-39 -64z" />
<glyph unicode="&#xe010;" d="M224 128v-64l-34 -14l-108 108l14 34h64v-64h64zM67 125l90 -90l-157 -67zM512 336l-240 -240h-16v32l208 208l-24 24l-200 -200h-48v48l200 200l-24 24l-208 -208h-32v16l240 240z" />
<glyph unicode="&#xe011;" d="M424 312l-216 -216h-80v80l216 216zM451 339l-80 80l28 28q7 7 17 7t17 -7l46 -46q7 -7 7 -17t-7 -17zM384 198v-166h-320v320h176l64 64h-256q-20 0 -34 -14t-14 -34v-352q0 -20 14 -34t34 -14h352q20 0 34 14t14 34v240z" />
<glyph unicode="&#xe012;" d="M320 416l-256 -256l-64 -192l192 64l256 256zM512 389q0 38 -26.5 64.5t-64.5 26.5q-42 0 -69 -32l128 -128q32 27 32 69zM224 0h288v-32h-288v32z" />
<glyph unicode="&#xe013;" d="M0 -32q21 64 50.5 127.5t77 135t101.5 125t128.5 89t154.5 35.5q-43 -35 -86.5 -99t-71.5 -117.5t-62.5 -94.5t-67.5 -41h-96l-96 -160h-32z" />
<glyph unicode="&#xe014;" d="M0 -32h32l96 160h96q33 0 67.5 41t62.5 94.5t71.5 117.5t86.5 99q-80 0 -154.5 -35.5t-128.5 -89t-101.5 -125t-77 -135t-50.5 -127.5zM196 192h-36q4 7 10.5 18t29 42t47 58t62 57.5t75.5 48.5q-14 -12 -36 -33t-72 -80t-80 -111z" />
<glyph unicode="&#xe015;" d="M192 187l6 3t15.5 8t23 11t28 10t30.5 8t29.5 2.5t26.5 -5.5q16 24 35 57q-24 6 -57 6.5t-53 -2.5l-20 -2q11 6 28 15t58 20.5t67 3.5q31 55 34 61q-24 1 -44 0t-34 -3l-13 -1q60 35 113 41q28 46 47 60q-80 0 -154.5 -35.5t-128.5 -89t-101.5 -125t-77 -135 t-50.5 -127.5h32l96 160q4 -4 12 -8t40.5 -5t75.5 13q31 10 68 57q-25 6 -58 6.5t-54 -2.5z" />
<glyph unicode="&#xe016;" d="M464 288l-144 144l48 48l144 -144zM304 384l112 -112l-64 -176l-288 -128l-21 21l173 172q4 -1 8 -1q13 0 22.5 9.5t9.5 22.5t-9.5 22.5t-22.5 9.5t-22.5 -9.5t-9.5 -22.5q0 -4 1 -8l-172 -173l-21 21l128 288z" />
<glyph unicode="&#xe017;" d="M480 336l-112 112l32 32l112 -112zM448 304l-16 -176q-64 0 -152 -40t-144 -80l-56 -40l-27 27l137 136q9 -3 18 -3q20 0 34 14t14 34t-14 34t-34 14t-34 -14t-14 -34q0 -9 3 -18l-136 -137l-27 27q7 8 17.5 23t38 59t48.5 84.5t38.5 93t17.5 92.5l176 16z" />
<glyph unicode="&#xe018;" d="M320 416l16 64h-192l16 -64h160zM320 384h-160l-80 -160l128 -256h16v224q-13 0 -22.5 9.5t-9.5 22.5v32q0 13 9.5 22.5t22.5 9.5h32q13 0 22.5 -9.5t9.5 -22.5v-32q0 -13 -9.5 -22.5t-22.5 -9.5v-224h16l128 256z" />
<glyph unicode="&#xe019;" d="M326 402l26 78h-224l26 -78l-74 -178l128 -256h64l128 256zM308 448l-11 -32h-114l-11 32h136zM256 8v187q14 5 23 17.5t9 27.5q0 20 -14 34t-34 14t-34 -14t-14 -34q0 -15 9 -27.5t23 -17.5v-187l-109 217l66 159h118l66 -159z" />
<glyph unicode="&#xe01a;" d="M258 350q-33 -32 -64 -63q-37 -37 -78 -87.5t-79 -119t-37 -112.5q44 -1 112.5 37t119 79t87.5 78q32 32 63 64zM472 378l-9 9l49 40l-53 53l-40 -49l-9 9q-39 3 -117 -61l118 -118q21 26 36 49q9 -33 -16.5 -82t-101.5 -109l14 -14q80 58 113.5 121.5t9.5 121.5 q7 18 6 30z" />
<glyph unicode="&#xe01b;" d="M469 437q-42 43 -84 43q-31 0 -57 -26l-248 -246l-80 -208l32 -32l208 80l18 18l228 230q22 21 25 46.5t-8 49t-34 45.5zM240 94l-114 114l201 201l114 -114z" />
<glyph unicode="&#xe01c;" d="M256 464l-256 -256l48 -48l48 48v-240h128v32v64h64v-96h128v240l48 -48l48 48zM132 0h-4v240l4 4v-244zM148 0h-8v252l8 8v-260zM164 0h-8v268l8 8v-276zM180 0h-8v284l8 8v-292zM196 96h-4v-32v-64h-4v300l8 8v-212zM212 96h-8v220l8 8v-228zM228 96h-8v236l8 8v-244z M244 96h-8v252l8 8v-260zM260 96h-8v268l4 4l4 -4v-268zM276 96h-8v260l8 -8v-252zM292 96h-8v244l8 -8v-236zM308 96h-8v228l8 -8v-220zM324 0h-4v64v32h-4v212l8 -8v-300zM340 0h-8v292l8 -8v-284zM356 0h-8v276l8 -8v-268zM372 0h-8v260l8 -8v-252zM384 0h-4v244l4 -4 v-240z" />
<glyph unicode="&#xe01d;" d="M228 -12h284v8h-276zM244 4h268v8h-260zM212 -28h300v8h-292zM292 52h220v8h-212zM276 36h236v8h-228zM260 20h252v8h-244zM469 437q-42 43 -84 43q-31 0 -57 -26l-248 -246l-80 -208l32 -32l208 80l18 18l228 230q22 21 25 46.5t-8 49t-34 45.5zM240 94l-114 114 l201 201l114 -114z" />
<glyph unicode="&#xe01e;" d="M192 384q93 0 158.5 -65.5t65.5 -158.5h-48q0 73 -51.5 124.5t-124.5 51.5v48zM192 480q133 0 226.5 -93.5t93.5 -226.5h-48q0 55 -21 106q-21 49 -58.5 86.5t-86.5 58.5q-51 21 -106 21v48zM287 255q33 -33 33 -79q-14 -21 -22 -51t-9 -42t-1 -19q-57 0 -113 -24 t-83 -48l-28 -24l-7 7l-12 12l142 141h5q13 0 22.5 9.5t9.5 22.5t-9.5 22.5t-22.5 9.5t-22.5 -9.5t-9.5 -22.5v-5l-141 -142l-19 19q4 4 10.5 11t23 30.5t29 48.5t23 61.5t10.5 72.5q7 0 19 1t42 9t51 22q46 0 79 -33z" />
<glyph unicode="&#xe01f;" d="M192 384v-48q73 0 124.5 -51.5t51.5 -124.5h48q0 93 -65.5 158.5t-158.5 65.5zM192 480v-48q55 0 106 -21q49 -21 86.5 -58.5t58.5 -86.5q21 -51 21 -106h48q0 133 -93.5 226.5t-226.5 93.5zM179 237l-135 -134l91 -91l134 135q19 18 19 45t-18.5 45.5t-45.5 18.5 t-45 -19zM0 -32l107 18l-89 89z" />
<glyph unicode="&#xe020;" d="M160 160q-17 0 -29 -12t-21.5 -30t-20.5 -37t-33.5 -36t-55.5 -24q18 -12 49 -18t71.5 0t71.5 29q27 21 31.5 51.5t-14 53.5t-49.5 23zM506 442q-14 14 -42 -4t-68 -54.5t-62 -49.5q-19 -12 -37.5 -26t-36 -32t-27 -35t-9 -35t14 -31.5t31.5 -14t35 9t35 27t32 36 t26 37.5q13 22 49.5 62t54.5 68t4 42z" />
<glyph unicode="&#xe021;" d="M258 416q-59 0 -109.5 -18t-82 -46.5t-49 -61.5t-17.5 -63q0 -44 18 -81.5t48.5 -63t64 -42.5t69.5 -26q64 -16 94.5 5t29.5 61q-1 20 3.5 33t12 17.5t16 6t16.5 -0.5l13.5 -2t23.5 -2.5t26 -0.5t28.5 4t24 11t18 20.5t6.5 32.5q0 90 -68 153.5t-186 63.5zM224 384 q13 0 22.5 -9.5t9.5 -22.5t-9.5 -22.5t-22.5 -9.5t-22.5 9.5t-9.5 22.5t9.5 22.5t22.5 9.5zM80 192q-7 0 -11.5 4.5t-4.5 11.5t4.5 11.5t11.5 4.5t11.5 -4.5t4.5 -11.5t-4.5 -11.5t-11.5 -4.5zM128 256q-13 0 -22.5 9.5t-9.5 22.5t9.5 22.5t22.5 9.5t22.5 -9.5t9.5 -22.5 t-9.5 -22.5t-22.5 -9.5zM256 128q-27 0 -45.5 14t-18.5 34t18.5 34t45.5 14t45.5 -14t18.5 -34t-18.5 -34t-45.5 -14zM368 256q-20 0 -34 14t-14 34t14 34t34 14t34 -14t14 -34t-14 -34t-34 -14z" />
<glyph unicode="&#xe022;" d="M256 416q-106 0 -181 -65.5t-75 -158.5q0 -61 35 -113t93 -81q38 -19 57 -4q14 11 -3 35q-22 22 -22 51q0 33 28 56.5t68 23.5t68 -23.5t28 -56.5q0 -29 -22 -51q-21 -30 4 -39q20 -7 50 8q58 29 93 81t35 113q0 93 -75 158.5t-181 65.5zM64 160q-13 0 -22.5 9.5 t-9.5 22.5t9.5 22.5t22.5 9.5t22.5 -9.5t9.5 -22.5t-9.5 -22.5t-22.5 -9.5zM128 260q-17 -10 -34 -8.5t-23.5 12.5t1 26.5t24.5 25.5t34 8.5t23.5 -12.5t-1 -26.5t-24.5 -25.5zM256 288q-27 0 -45.5 14t-18.5 34t18.5 34t45.5 14t45.5 -14t18.5 -34t-18.5 -34t-45.5 -14z M384 260q-17 10 -24.5 25.5t-1 26.5t23.5 12.5t34 -8.5t24.5 -25.5t1 -26.5t-23.5 -12.5t-34 8.5zM448 160q-13 0 -22.5 9.5t-9.5 22.5t9.5 22.5t22.5 9.5t22.5 -9.5t9.5 -22.5t-9.5 -22.5t-22.5 -9.5z" />
<glyph unicode="&#xe023;" d="M491 459q20 -20 21.5 -38.5t-12.5 -34t-31 -27.5t-37 -24t-26 -19q-3 -3 -8.5 -8t-7.5 -8l30 -30q11 -12 0 -23l-30 -30q-12 -11 -23 0l-30 30l-189 -188q-16 -17 -62.5 -46.5t-61.5 -44.5l-7 7l-4 4l-1 1l-12 12q15 15 44.5 61.5t46.5 62.5l188 189l-30 30q-11 12 0 23 l30 30q11 11 23 0l30 -30l7.5 7.5l8.5 8.5q7 6 19 26t24 37t27.5 31t34 12.5t38.5 -21.5zM134 73l192 192l-29 29l-192 -192q-15 -15 -44 -61q-15 -24 -23 -35q11 8 35 23q46 29 61 44z" />
<glyph unicode="&#xe024;" d="M384 320h-56q-9 0 -13 3.5t-3.5 12t2.5 18.5t4 27.5t2 34.5q0 11 -2 18q-6 20 -23 33t-39 13t-39 -13t-23 -33q-2 -7 -2 -18q0 -17 2 -34.5t4 -27.5t2.5 -18.5t-3.5 -12t-13 -3.5h-56v-64h64v-248q0 -8 8 -8h16q8 0 8 -8v-16q0 -8 8 -8h48q8 0 8 8v16q0 8 8 8h16q8 0 8 8 v248h64v64zM288 31q-12 -2 -20.5 -10.5t-10.5 -20.5h-2q-2 12 -10.5 20.5t-20.5 10.5v225h64v-225z" />
<glyph unicode="&#xe025;" d="M448 163v1v2q-2 45 -22 93.5t-48 86t-55.5 69t-47.5 48.5l-19 17q-8 -6 -20.5 -17.5t-45 -47t-57.5 -71t-46 -84.5t-23 -94v-2v-1v-3v-4q2 -78 58 -133t134 -55t134 55t58 133v3.5v3.5zM384 158v-1q-1 -52 -38.5 -88.5t-89.5 -36.5q-9 0 -18 1q53 32 84.5 86t31.5 118 q0 15 -2 29q30 -56 32 -102v-1v-1v-2v-2z" />
<glyph unicode="&#xe026;" d="M120 165v3v3v1v2q4 112 134 243q33 32 34 31q38 -32 77 -79l-240 -241q-5 18 -5 37zM456 172v2q-2 64 -50 139l105 104l-25 25l-448 -448l25 -25l94 94q50 -63 131 -63q69 0 118 48t50 117v3v3v1zM400 166q-1 -46 -33.5 -78t-78.5 -32q-8 0 -16 1q46 28 73.5 75.5 t27.5 103.5q0 12 -1 25q27 -49 28 -89v-1v-1v-2v-2z" />
<glyph unicode="&#xe027;" d="M256 415q-32 -31 -58 -64q-83 -104 -86 -186v-2v-1v-2v-2v-1q1 -59 43 -100t101 -41t101 41t43 100v0v3v2v1v2v0q-3 82 -86 186q-26 33 -58 64zM256 480q8 -6 20.5 -17.5t45 -47t57.5 -71t46 -84.5t23 -94v-2v-1v-3.5v-3.5q-2 -78 -58 -133t-134 -55t-134 55t-58 133v4v3 v1v2q2 45 22 93.5t48 86t56 69t46.5 48.5t19.5 17zM362 168v-2v-2v0q-1 -46 -33.5 -78t-78.5 -32q-36 0 -65 21q7 -1 13 -1q59 0 101 41t43 100v0v3v2v1v2v0q-1 14 -4 29q23 -45 24 -82v0v-1v-1z" />
<glyph unicode="&#xe028;" d="M256 392q-25 -25 -46 -52q-79 -99 -82 -176v-1v-1v-2v-2v-1q1 -52 38.5 -88.5t89.5 -36.5t89.5 36.5t38.5 88.5v1v2v2v0v1v1v0q-3 77 -82 176q-21 27 -46 52zM256 480q8 -6 20.5 -17.5t45 -47t57.5 -71t46 -84.5t23 -94v-2v-1v-3.5v-3.5q-2 -78 -58 -133t-134 -55 t-134 55t-58 133v4v3v1v2q2 45 22 93.5t48 86t56 69t46.5 48.5t19.5 17z" />
<glyph unicode="&#xe029;" d="M416 384v32q0 13 -9.5 22.5t-22.5 9.5h-352q-13 0 -22.5 -9.5t-9.5 -22.5v-96q0 -13 9.5 -22.5t22.5 -9.5h352q13 0 22.5 9.5t9.5 22.5v32h64v-128h-288v-64h-16q-7 0 -11.5 -4.5t-4.5 -11.5v-160q0 -7 4.5 -11.5t11.5 -4.5h64q7 0 11.5 4.5t4.5 11.5v160q0 7 -4.5 11.5 t-11.5 4.5h-16v32h288v192h-96zM35 384h-3v32h3v-32zM51 384h-8v32h8v-32zM67 384h-8v32h8v-32zM83 384h-8v32h8v-32zM99 384h-8v32h8v-32zM115 384h-8v32h8v-32zM131 384h-8v32h8v-32zM147 384h-8v32h8v-32zM163 384h-8v32h8v-32zM179 384h-8v32h8v-32zM195 384h-8v32h8 v-32zM211 384h-8v32h8v-32zM227 384h-8v32h8v-32zM243 384h-8v32h8v-32zM259 384h-8v32h8v-32zM275 384h-8v32h8v-32zM291 384h-8v32h8v-32zM307 384h-8v32h8v-32zM323 384h-8v32h8v-32zM339 384h-8v32h8v-32zM355 384h-8v32h8v-32zM371 384h-8v32h8v-32zM384 384h-5v32h5 v-32z" />
<glyph unicode="&#xe02a;" d="M512 192v192h-96v32q0 13 -9.5 22.5t-22.5 9.5h-352q-13 0 -22.5 -9.5t-9.5 -22.5v-96q0 -13 9.5 -22.5t22.5 -9.5h352q13 0 22.5 9.5t9.5 22.5v32h64v-128h-288v-64h-16q-7 0 -11.5 -4.5t-4.5 -11.5v-160q0 -7 4.5 -11.5t11.5 -4.5h64q7 0 11.5 4.5t4.5 11.5v160 q0 7 -4.5 11.5t-11.5 4.5h-16v32h288zM384 384h-352v32h352v-32z" />
<glyph unicode="&#xe02b;" d="M448 384h-384v-320h384v320zM512 448v-448h-512v448h512zM416 96h-320v64l96 160l132 -160l92 64v-32v-96zM320 304q0 20 14 34t34 14t34 -14t14 -34t-14 -34t-34 -14t-34 14t-14 34z" />
<glyph unicode="&#xe02c;" d="M0 416v-416h512v416h-512zM480 32h-448v352h448v-352zM352 304q0 20 14 34t34 14t34 -14t14 -34t-14 -34t-34 -14t-34 14t-14 34zM448 64h-384l96 256l128 -160l64 48z" />
<glyph unicode="&#xe02d;" d="M0 416v-384h512v384h-512zM480 64h-32l-96 144l-64 -48l-128 160l-96 -256h-32v320h448v-320zM352 304q0 20 14 34t34 14t34 -14t14 -34t-14 -34t-34 -14t-34 14t-14 34z" />
<glyph unicode="&#xe02e;" d="M64 352v-320h448v320h-448zM480 85l-64 107l-73 -60l-55 92l-192 -160v256h384v-235zM128 240q0 20 14 34t34 14t34 -14t14 -34t-14 -34t-34 -14t-34 14t-14 34zM448 416h-448v-320h32v288h416v32z" />
<glyph unicode="&#xe02f;" d="M416 192q-16 0 -48 -16t-48 -16q-10 0 -19.5 20t-16.5 44t-22.5 44t-37.5 20q-50 0 -93.5 -49.5t-66.5 -142.5h384q0 74 -21 92q-5 4 -11 4zM0 384v-352h512v352h-512zM480 64h-448v288h448v-288zM352 272q0 20 14 34t34 14t34 -14t14 -34t-14 -34t-34 -14t-34 14t-14 34 z" />
<glyph unicode="&#xe030;" d="M0 384v-320h512v320h-512zM480 160l-96 96l-46 -69l91 -91h-45l-160 160l-192 -160v256h448v-192zM64 272q0 20 14 34t34 14t34 -14t14 -34t-14 -34t-34 -14t-34 14t-14 34z" />
<glyph unicode="&#xe031;" d="M0 448v-480h512v480h-512zM448 96h-384v288h384v-288zM416 192l-32 64l-64 -64l-96 160l-128 -192v-32h320v64z" />
<glyph unicode="&#xe032;" d="M384 448h-384v-384h384v384zM352 160h-320v256h320v-256zM256 320l-23 -46l-73 110l-96 -192h256zM416 357v-325h-356l-2 -24l382 -40l40 382z" />
<glyph unicode="&#xe033;" d="M0 448v-448h512v448h-512zM480 416v-325l-126 147q-14 16 -34 16t-34 -16l-149 -174h-93l72 91q6 6 12 6t12 -6l15 -20l19 22l-13 16q-13 16 -33 16t-33 -16l-63 -79v322h448zM466 64h-292l133 156q6 6 13 6t13 -6zM144 356q22 0 37 -15t15 -37t-15 -37t-37 -15t-37 15 t-15 37t15 37t37 15zM144 384q-33 0 -56.5 -23.5t-23.5 -56.5t23.5 -56.5t56.5 -23.5t56.5 23.5t23.5 56.5t-23.5 56.5t-56.5 23.5z" />
<glyph unicode="&#xe034;" d="M256 264q35 0 60 -26t25 -62t-25 -62t-60 -26t-60 26t-25 62t25 62t60 26zM480 384h-96l-16 41q-3 9 -11.5 16t-18.5 7h-164q-10 0 -18.5 -7t-11.5 -16l-16 -41h-96q-13 0 -22.5 -9.5t-9.5 -22.5v-352q0 -13 9.5 -22.5t22.5 -9.5h448q13 0 22.5 9.5t9.5 22.5v352 q0 13 -9.5 22.5t-22.5 9.5zM256 40q-55 0 -94 40t-39 96t39 96t94 40t94 -40t39 -96t-39 -96t-94 -40z" />
<glyph unicode="&#xe035;" d="M480 384h-96l-16 41q-3 9 -11.5 16t-18.5 7h-164q-10 0 -18.5 -7t-11.5 -16l-16 -41h-96q-13 0 -22.5 -9.5t-9.5 -22.5v-352q0 -13 9.5 -22.5t22.5 -9.5h448q13 0 22.5 9.5t9.5 22.5v352q0 13 -9.5 22.5t-22.5 9.5zM448 32h-384v288h107l26 64h118l26 -64h107v-288z M256 296q-50 0 -85 -35t-35 -85t35 -85t85 -35t85 35t35 85t-35 85t-85 35zM256 104q-30 0 -51 21t-21 51t21 51t51 21t51 -21t21 -51t-21 -51t-51 -21z" />
<glyph unicode="&#xe036;" d="M152 176q0 -43 30.5 -73.5t73.5 -30.5t73.5 30.5t30.5 73.5t-30.5 73.5t-73.5 30.5t-73.5 -30.5t-30.5 -73.5zM480 352h-112q-5 21 -9 32t-14 21.5t-25 10.5h-128q-15 0 -25 -10.5t-14 -21.5t-9 -32h-112q-13 0 -22.5 -9.5t-9.5 -22.5v-288q0 -13 9.5 -22.5t22.5 -9.5 h448q13 0 22.5 9.5t9.5 22.5v288q0 13 -9.5 22.5t-22.5 9.5zM256 34q-59 0 -100.5 41.5t-41.5 100.5t41.5 100.5t100.5 41.5t100.5 -41.5t41.5 -100.5t-41.5 -100.5t-100.5 -41.5zM480 256h-64v32h64v-32z" />
<glyph unicode="&#xe037;" d="M416 448h-320q-26 0 -45 -19t-19 -45v-320q0 -26 19 -45t45 -19h320q26 0 45 19t19 45v320q0 26 -19 45t-45 19zM336 192q0 -33 -23.5 -56.5t-56.5 -23.5t-56.5 23.5t-23.5 56.5q0 40 32 64h96q32 -24 32 -64zM160 384h32v-64h-32v64zM96 384h32v-64h-32v64zM416 64h-160 h-160v192h49q-17 -30 -17 -64q0 -53 37.5 -90.5t90.5 -37.5t90.5 37.5t37.5 90.5q0 34 -17 64h49v-192z" />
<glyph unicode="&#xe038;" d="M406 333q-13 18 -25 30t-17 17.5t-14.5 27t-25.5 65.5l-44 7l-50 -366q-57 30 -96 24.5t-58 -36.5t-10 -73q5 -23 27.5 -40t55 -20.5t68.5 16.5q38 23 48 75l35 272q21 -19 36.5 -36t25 -33.5t16.5 -29.5t8 -29.5t2 -26t-3.5 -27t-6.5 -24.5t-9 -26t-9 -25q23 9 43 31 t34.5 54t7.5 78t-39 95z" />
<glyph unicode="&#xe039;" d="M160 384v-264q-23 8 -48 8q-46 0 -79 -23.5t-33 -56.5t33 -56.5t79 -23.5t79 23.5t33 56.5v152l224 61v-77q-23 8 -48 8q-46 0 -79 -23.5t-33 -56.5t33 -56.5t79 -23.5t79 23.5t33 56.5v368zM224 249v49l224 61v-49z" />
<glyph unicode="&#xe03a;" d="M160 384l352 96v-32v-64v-272q0 -33 -33 -56.5t-79 -23.5t-79 23.5t-33 56.5t33 56.5t79 23.5q25 0 48 -8v165l-224 -61v-240q0 -33 -33 -56.5t-79 -23.5t-79 23.5t-33 56.5t33 56.5t79 23.5q25 0 48 -8v168v96z" />
<glyph unicode="&#xe03b;" d="M480 480l-288 -64v-312q-33 24 -80 24q-46 0 -79 -23.5t-33 -56.5t33 -56.5t79 -23.5t79 23.5t33 56.5v207l256 57v-144q-33 24 -80 24q-46 0 -79 -23.5t-33 -56.5t33 -56.5t79 -23.5t79 23.5t33 56.5v368h-32zM480 353l-256 -57v63l256 57v-63z" />
<glyph unicode="&#xe03c;" d="M480 480h32v-368q0 -33 -33 -56.5t-79 -23.5t-79 23.5t-33 56.5t33 56.5t79 23.5q47 0 80 -24v184l-256 -57v-247q0 -33 -33 -56.5t-79 -23.5t-79 23.5t-33 56.5t33 56.5t79 23.5q47 0 80 -24v312z" />
<glyph unicode="&#xe03d;" d="M480 480l-288 -64v-312q-33 24 -80 24q-46 0 -79 -23.5t-33 -56.5t33 -56.5t79 -23.5t79 23.5t33 56.5v207l256 57v-144q-33 24 -80 24q-46 0 -79 -23.5t-33 -56.5t33 -56.5t79 -23.5t79 23.5t33 56.5v368h-32zM112 6q-31 0 -52.5 13t-21.5 29t21.5 29t52.5 13t52.5 -13 t21.5 -29t-21.5 -29t-52.5 -13zM400 70q-31 0 -52.5 13t-21.5 29t21.5 29t52.5 13t52.5 -13t21.5 -29t-21.5 -29t-52.5 -13zM480 353l-256 -57v63l256 57v-63z" />
<glyph unicode="&#xe03e;" d="M0 480v-512h480v512h-480zM96 0h-64v448h32v-320h32v-128zM224 0h-96v128h32v320h32v-320h32v-128zM352 0h-96v128h32v320h32v-320h32v-128zM448 0h-64v128h32v320h32v-448z" />
<glyph unicode="&#xe03f;" d="M440 352l72 64q-5 24 -22.5 41.5t-41.5 22.5l-64 -72v-17l-91 -91q-60 49 -100 16q-12 -9 -24 -32.5t-16 -27.5q-8 -8 -30.5 -10.5t-49 -11t-47.5 -30.5q-65 -72 36.5 -173.5t173.5 -36.5q22 21 30.5 47.5t11 49t10.5 30.5q4 5 27.5 16.5t32.5 23.5q33 40 -16 100l91 91 h17zM147 51l-64 64l26 26l64 -64zM240 160q-20 0 -34 14t-14 34t14 34t34 14t34 -14t14 -34t-14 -34t-34 -14z" />
<glyph unicode="&#xe040;" d="M96 191v-222q8 -1 16 -1h16v224h-16q-8 0 -16 -1zM384 192v-224h16q8 0 16 1v222q-8 1 -16 1h-16zM512 224q0 106 -75 181t-181 75t-181 -75t-75 -181q0 -45 15 -87q-15 -27 -15 -57q0 -33 17.5 -60.5t46.5 -40.5v202q-15 -7 -27 -18q-5 22 -5 45q0 93 65.5 158.5 t158.5 65.5t158.5 -65.5t65.5 -158.5q0 -23 -5 -45q-12 11 -27 18v-202q29 13 46.5 40.5t17.5 60.5q0 30 -15 57q15 42 15 87z" />
<glyph unicode="&#xe041;" d="M256 416q-93 0 -158.5 -65.5t-65.5 -158.5v-96h32v96q0 76 54.5 118t137.5 42t137.5 -42t54.5 -118v-96h32v96q0 93 -65.5 158.5t-158.5 65.5zM139 192h-22q-8 0 -14.5 -6.5t-6.5 -14.5v-118q0 -8 6.5 -14.5t14.5 -6.5h22q8 0 14.5 6.5t6.5 14.5v118q0 8 -6.5 14.5 t-14.5 6.5zM395 192h-22q-8 0 -14.5 -6.5t-6.5 -14.5v-118q0 -8 6.5 -14.5t14.5 -6.5h22q8 0 14.5 6.5t6.5 14.5v118q0 8 -6.5 14.5t-14.5 6.5z" />
<glyph unicode="&#xe042;" d="M491 400q-112 16 -235 16t-235 -16q-21 -84 -21 -176t21 -176q112 -16 235 -16t235 16q21 84 21 176t-21 176zM192 128v192l160 -96z" />
<glyph unicode="&#xe043;" d="M192 331v-150l130 75zM0 384v-320h512v320h-512zM480 96h-448v32h448v-32zM480 160h-448v192h448v-192z" />
<glyph unicode="&#xe044;" d="M39 349l433 116l25 -93l-433 -116zM64 256v-288h448v288h-448zM224 32v160l128 -80z" />
<glyph unicode="&#xe045;" d="M32 256v-288h480v288h-480zM480 160h-416v32h416v-32zM15 415l17 -127l476 65l-18 127zM184 341l-89 -12l54 72l90 12zM370 367l-90 -13l55 72l89 13z" />
<glyph unicode="&#xe046;" d="M256 480q-106 0 -181 -75t-75 -181t75 -181t181 -75t181 75t75 181t-75 181t-181 75zM256 423q23 0 39 -16t16 -38.5t-16 -38.5t-39 -16t-39 16t-16 38.5t16 38.5t39 16zM58 272.5q0 22.5 16 38.5t38.5 16t38.5 -16t16 -38.5t-16 -38.5t-38.5 -16t-38.5 16t-16 38.5z M169.5 57q-22.5 0 -38.5 16t-16 39t16 39t38.5 16t38.5 -16t16 -39t-16 -39t-38.5 -16zM256 192q-13 0 -22.5 9.5t-9.5 22.5t9.5 22.5t22.5 9.5t22.5 -9.5t9.5 -22.5t-9.5 -22.5t-22.5 -9.5zM342.5 57q-22.5 0 -38.5 16t-16 38.5t16 38.5t38.5 16t38.5 -16t16 -38.5 t-16 -38.5t-38.5 -16zM399.5 218q-22.5 0 -38.5 16t-16 38.5t16 38.5t38.5 16t38.5 -16t16 -38.5t-16 -38.5t-38.5 -16z" />
<glyph unicode="&#xe047;" d="M0 480v-512h512v512h-512zM320 448h64v-64h-64v64zM224 448h64v-64h-64v64zM128 448h64v-64h-64v64zM32 448h64v-64h-64v64zM32 352h192v-256h-192v256zM96 0h-64v64h64v-64zM192 0h-64v64h64v-64zM288 0h-64v64h64v-64zM384 0h-64v64h64v-64zM480 0h-64v64h64v-64z M480 96h-224v256h224v-256zM480 384h-64v64h64v-64z" />
<glyph unicode="&#xe048;" d="M0 448v-448h512v448h-512zM96 32h-64v64h64v-64zM96 128h-64v64h64v-64zM96 256h-64v64h64v-64zM96 352h-64v64h64v-64zM384 32h-256v64v32v64h256v-160zM384 256h-256v160h256v-160zM480 32h-64v64h64v-64zM480 128h-64v64h64v-64zM480 256h-64v64h64v-64zM480 352h-64 v64h64v-64z" />
<glyph unicode="&#xe049;" d="M0 416v-384h512v384h-512zM96 64h-64v64h64v-64zM96 192h-64v64h64v-64zM96 320h-64v64h64v-64zM384 64h-256v320h256v-320zM480 64h-64v64h64v-64zM480 192h-64v64h64v-64zM480 320h-64v64h64v-64z" />
<glyph unicode="&#xe04a;" d="M0 416v-384h512v384h-512zM96 64h-64v64h64v-64zM96 192h-64v64h64v-64zM96 320h-64v64h64v-64zM384 64h-256v320h256v-320zM480 64h-64v64h64v-64zM480 192h-64v64h64v-64zM480 320h-64v64h64v-64zM192 320v-192l128 96z" />
<glyph unicode="&#xe04b;" d="M192 336q0 33 23.5 56.5t56.5 23.5t56.5 -23.5t23.5 -56.5t-23.5 -56.5t-56.5 -23.5t-56.5 23.5t-23.5 56.5zM0 336q0 33 23.5 56.5t56.5 23.5t56.5 -23.5t23.5 -56.5t-23.5 -56.5t-56.5 -23.5t-56.5 23.5t-23.5 56.5zM384 176v48q0 13 -9.5 22.5t-22.5 9.5h-80h-192h-48 q-13 0 -22.5 -9.5t-9.5 -22.5v-160q0 -13 9.5 -22.5t22.5 -9.5h320q13 0 22.5 9.5t9.5 22.5v48l128 -80v224zM320 96h-256v96h256v-96z" />
<glyph unicode="&#xe04c;" d="M489 352q-8 0 -15 -6l-90 -63v53q0 20 -14 34t-34 14h-288q-20 0 -34 -14t-14 -34v-224q0 -20 14 -34t34 -14h288q20 0 34 14t14 34v53l90 -63q7 -6 15 -6q12 0 18 9q5 7 5 16v206q0 11 -6.5 18t-16.5 7z" />
<glyph unicode="&#xe04d;" d="M489 352q-8 0 -15 -6l-90 -63v53q0 20 -14 34t-34 14h-288q-20 0 -34 -14t-14 -34v-224q0 -20 14 -34t34 -14h288q20 0 34 14t14 34v53l90 -63q7 -6 15 -6q12 0 18 9q5 7 5 16v206q0 11 -6.5 18t-16.5 7zM480 136l-79 56h-49v-80q0 -7 -4.5 -11.5t-11.5 -4.5h-288 q-7 0 -11.5 4.5t-4.5 11.5v224q0 7 4.5 11.5t11.5 4.5h288q7 0 11.5 -4.5t4.5 -11.5v-80h49l79 56v-176z" />
<glyph unicode="&#xe04e;" d="M352 112q0 -20 -14 -34t-34 -14h-224q-20 0 -34 14t-14 34v192q0 20 14 34t34 14h224q20 0 34 -14t14 -34v-192zM480 320v-224q0 -20 -10 -24t-24 10l-92 92q-14 14 -14 34t14 34l92 92q14 14 24 10t10 -24z" />
<glyph unicode="&#xe04f;" d="M292 64h-199q-25 0 -43 17t-18 42v170q0 25 18 42t43 17h199q25 0 42.5 -17t17.5 -42v-21l70 60q14 14 29 14q11 0 20 -9.5t9 -28.5v-200q0 -15 -6 -24q-8 -14 -23 -14t-29 14l-70 60v-21q0 -25 -17.5 -42t-42.5 -17zM93 320q-12 0 -20.5 -8t-8.5 -19v-170q0 -11 8.5 -19 t20.5 -8h199q11 0 19.5 8t8.5 19v57q0 11 10 15t18 -4q0 -1 1 -1l94 -82h1q2 -3 4 -4v4v200v4q-2 -1 -4 -4h-1l-94 -82q-1 0 -1 -1q-8 -8 -18 -4t-10 15v57q0 11 -8.5 19t-19.5 8h-199z" />
<glyph unicode="&#xe050;" d="M432 384h-256q-33 0 -56.5 -23.5t-23.5 -56.5v-256q0 -33 23.5 -56.5t56.5 -23.5h256q33 0 56.5 23.5t23.5 56.5v256q0 33 -23.5 56.5t-56.5 23.5zM208 32q-20 0 -34 14t-14 34t14 34t34 14t34 -14t14 -34t-14 -34t-34 -14zM208 224q-20 0 -34 14t-14 34t14 34t34 14 t34 -14t14 -34t-14 -34t-34 -14zM304 128q-20 0 -34 14t-14 34t14 34t34 14t34 -14t14 -34t-14 -34t-34 -14zM400 32q-20 0 -34 14t-14 34t14 34t34 14t34 -14t14 -34t-14 -34t-34 -14zM400 224q-20 0 -34 14t-14 34t14 34t34 14t34 -14t14 -34t-14 -34t-34 -14zM414 416 q-5 28 -27 46t-51 18h-256q-33 0 -56.5 -23.5t-23.5 -56.5v-256q0 -29 18 -51t46 -27v318q0 13 9.5 22.5t22.5 9.5h318z" />
<glyph unicode="&#xe051;" d="M160 320h-32v-32h-32v-32h32v-32h32v32h32v32h-32v32zM320 296q0 10 7 17t17 7t17 -7t7 -17t-7 -17t-17 -7t-17 7t-7 17zM368 248q0 10 7 17t17 7t17 -7t7 -17t-7 -17t-17 -7t-17 7t-7 17zM370 394q-31 0 -61.5 -17t-52.5 -17t-52.5 17t-61.5 17q-44 0 -77.5 -32.5 t-49 -76.5t-15.5 -88q0 -132 36 -142q20 -5 44.5 10.5t58.5 47.5q17 16 28.5 23t17.5 7.5t25 0.5l46 -1l46 1h5q21 0 32 -4.5t34 -26.5q34 -32 58.5 -47.5t44.5 -10.5q36 10 36 142q0 44 -15.5 88t-49 76.5t-77.5 32.5zM144 192q-33 0 -56.5 23.5t-23.5 56.5t23.5 56.5 t56.5 23.5t56.5 -23.5t23.5 -56.5t-23.5 -56.5t-56.5 -23.5zM368 192q-33 0 -56.5 23.5t-23.5 56.5t23.5 56.5t56.5 23.5t56.5 -23.5t23.5 -56.5t-23.5 -56.5t-56.5 -23.5z" />
<glyph unicode="&#xe052;" d="M476 322q-20 32 -46 50q-30 21 -66 21q-33 0 -67 -20q-24 -13 -41 -13t-41 13q-34 20 -67 20q-36 0 -66 -21q-26 -18 -46 -50q-36 -59 -36 -129q0 -63 7 -95q10 -45 37 -53q6 -2 13 -2q34 0 97 60q20 18 28 22t21 4h4h5l44 -1l44 1h5h4q13 0 21 -4t28 -22q63 -60 97 -60 q7 0 13 2q27 8 37 53q7 32 7 95q0 70 -36 129zM474 105q-6 -27 -15 -29q-2 -1 -4 -1q-21 0 -75 51q-23 22 -37 29q-13 6 -34 6h-5h-4h-1l-43 -1l-43 1h-1h-4h-5q-21 0 -34 -6q-14 -7 -37 -29q-54 -51 -75 -51q-2 0 -4 1q-9 2 -15 29q-6 29 -6 88q0 28 8.5 58.5t22.5 53.5 q16 26 37 41q22 15 48 15q24 0 51 -16q31 -17 57 -17t57 17q27 16 51 16q26 0 48 -15q21 -15 37 -41q14 -23 22.5 -53.5t8.5 -58.5q0 -59 -6 -88zM320 288q0 13 9.5 22.5t22.5 9.5t22.5 -9.5t9.5 -22.5t-9.5 -22.5t-22.5 -9.5t-22.5 9.5t-9.5 22.5zM384 224q0 13 9.5 22.5 t22.5 9.5t22.5 -9.5t9.5 -22.5t-9.5 -22.5t-22.5 -9.5t-22.5 9.5t-9.5 22.5zM128 288q13 0 22.5 -9.5t9.5 -22.5t-9.5 -22.5t-22.5 -9.5t-22.5 9.5t-9.5 22.5t9.5 22.5t22.5 9.5zM128 320q-26 0 -45 -19t-19 -45t19 -45t45 -19t45 19t19 45t-19 45t-45 19z" />
<glyph unicode="&#xe053;" d="M400 320h-288q-46 0 -79 -33t-33 -79t33 -79t79 -33q33 0 60.5 17.5t40.5 46.5h86q13 -29 40.5 -46.5t60.5 -17.5q46 0 79 33t33 79t-33 79t-79 33zM169 192h-41v-41h-32v41h-41v32h41v41h32v-41h41v-32zM368 151q-10 0 -17.5 7.5t-7.5 17.5t7.5 17.5t17.5 7.5t17.5 -7.5 t7.5 -17.5t-7.5 -17.5t-17.5 -7.5zM432 215q-10 0 -17.5 7.5t-7.5 17.5t7.5 17.5t17.5 7.5t17.5 -7.5t7.5 -17.5t-7.5 -17.5t-17.5 -7.5z" />
<glyph unicode="&#xe054;" d="M482 391q-36 41 -86.5 65t-107.5 24q-106 0 -181 -75t-75 -181t75 -181t181 -75q57 0 107.5 24t86.5 65l-162 167zM352 420q15 0 25.5 -10.5t10.5 -25.5t-10.5 -25.5t-25.5 -10.5t-25.5 10.5t-10.5 25.5t10.5 25.5t25.5 10.5z" />
<glyph unicode="&#xe055;" d="M409 306q-45 33 -78 68t-47 56.5t-28 49.5v0q-14 -28 -28 -49.5t-47 -56.5t-78 -68q-47 -35 -63.5 -77t-2.5 -74t41.5 -54.5t70 -22t81.5 27.5q-6 -41 -25.5 -72.5t-44.5 -46.5v-19h96h96v19q-25 15 -44.5 46.5t-25.5 72.5q39 -27 81.5 -27.5t70 22t41.5 54.5t-2.5 74 t-63.5 77z" />
<glyph unicode="&#xe056;" d="M393 284q-44 0 -75 -33q-11 -12 -36 -27q5 19 18.5 41.5t25.5 34.5q32 30 32 75q0 43 -29.5 74t-72.5 31t-72.5 -31t-29.5 -74q0 -45 32 -75q12 -12 25.5 -34.5t18.5 -41.5q-25 15 -36 27q-31 33 -75 33q-43 0 -73.5 -31t-30.5 -74t30.5 -74t73.5 -31q44 0 75 33 q13 15 39 29q-1 -52 -22.5 -92t-50.5 -57v-19h96h96v19q-29 17 -50.5 57t-22.5 92q26 -14 39 -29q31 -33 75 -33q43 0 73.5 31t30.5 74t-30.5 74t-73.5 31z" />
<glyph unicode="&#xe057;" d="M256 480l-160 -256l160 -256l160 256z" />
<glyph unicode="&#xe058;" d="M487 347q-25 25 -66 25q-55 0 -107 -42q-13 40 -42 51v35h48v32h-48v32h-32v-32h-48v-32h48v-35q-29 -11 -42 -51q-52 42 -107 42q-41 0 -66 -25q-33 -33 -23 -89t57 -103q17 -17 37 -30v-47q70 -14 160 -14t160 14v47q20 13 37 30q47 47 57 103t-23 89zM82 291q2 1 9 1 v0q34 0 70 -35q27 -27 34 -58q3 -16 0 -21q-3 -2 -9 -2q-35 0 -71 35q-27 28 -33 58q-4 16 0 22zM430 269q-6 -30 -33 -58q-36 -35 -71 -35q-6 0 -9 2q-3 5 0 21q7 31 34 58q36 35 70 35q7 0 9 -1q4 -6 0 -22zM96 29v-47q70 -14 160 -14t160 14v47q-72 -13 -160 -13t-160 13 z" />
<glyph unicode="&#xe059;" d="M256 0q-89 0 -157 14q-1 0 -3 1v-33q70 -14 160 -14t160 14v33q-2 -1 -3 -1q-68 -14 -157 -14zM384 49v15l-16 32h-224l-16 -32v-15q59 -9 128 -9t128 9zM501 339q-11 11 -27 11t-28 -11q-9 -9 -10.5 -22.5t5.5 -24.5l-98 -58l19 91q13 -3 25 2.5t18 17.5q7 15 1.5 30 t-19.5 22t-29 1.5t-22 -19.5q-6 -12 -3 -25t13 -21l-60 -71l-21 85q13 3 21 13.5t8 23.5q0 16 -11 27t-27 11t-27 -11t-11 -27q0 -13 8 -23.5t21 -13.5l-21 -85l-60 71q10 8 13 21t-3 25q-7 14 -22 19.5t-29 -1.5t-19.5 -22t1.5 -30q6 -12 18 -17.5t25 -2.5l19 -91l-98 58 q7 11 5.5 24.5t-10.5 22.5q-12 11 -28 11t-27 -11t-11 -27t11 -27q10 -10 23 -11.5t24 5.5l91 -151h214l91 151q11 -7 24 -5.5t23 11.5q11 11 11 27t-11 27z" />
<glyph unicode="&#xe05a;" d="M96 336h288v-256h-288v256zM384 352l64 64v64h-64v-32h-96v32h-96v-32h-96v32h-64v-64l64 -64h288zM384 400l-16 -16h-256l-16 16h288zM64 64h352v-32h-352v32zM448 16h-416q-25 -16 -32 -48h480q-3 14 -11 26t-15 17z" />
<glyph unicode="&#xe05b;" d="M397 96h-314q11 -28 55 -46t102 -18t102 18t55 46zM0 -32h45q0 4 5.5 10t9.5 6h135q18 0 31.5 17t13.5 31h-180q-23 0 -41.5 -20t-18.5 -44zM420 32h-180q0 -14 13.5 -31t31.5 -17h135q4 0 9.5 -6t5.5 -10h45q0 24 -19 44t-41 20zM240 128h157q-10 24 -45 41q16 22 16 55 q0 55 -31 94.5t-68 57.5q27 16 27 48q0 23 -16.5 39.5t-39.5 16.5t-39.5 -16.5t-16.5 -39.5q0 -32 27 -48q-37 -18 -68 -57.5t-31 -94.5q0 -33 16 -55q-35 -17 -45 -41h157zM160 256v32h64v64h32v-64h64v-32h-64v-64h-32v64h-64z" />
<glyph unicode="&#xe05c;" d="M496 0h-368l-16 -32h400zM284 224q2 -36 -11.5 -68t-32 -51t-41 -44.5t-32.5 -44.5h313v176q0 79 -26.5 139t-68.5 91q-4 17 -10 30l-6 14q-5 12 -15 13.5t-19 -8.5l-19 -23q-12 0 -23 -1l-42 28q-11 8 -19 3.5t-8 -17.5v-32q-10 -6 -36 -26q-15 -11 -41.5 -40.5 t-65 -75.5t-53.5 -63q-23 -25 -25.5 -47.5t11.5 -33t37 -5.5q-1 -20 8.5 -25t22 0t26.5 15q17 13 50.5 22.5t60.5 14t46.5 19.5t18.5 40zM387 393q27 -26 44 -65q27 -60 27 -136v-144l-48 48v96q0 65 -23 116q-14 31 -33 52zM80 185q-9 0 -16 7t-7 16t7 16t16 7t16 -7t7 -16 t-7 -16t-16 -7zM241 336q-14 -14 -29 -19t-22 2t-2 22t19 29t29 19t22 -2t2 -22t-19 -29z" />
<glyph unicode="&#xe05d;" d="M368 162q16 29 16 62q0 38 -20.5 69.5t-54.5 46.5q27 24 27 60q0 33 -23.5 56.5t-56.5 23.5t-56.5 -23.5t-23.5 -56.5q0 -36 27 -60q-34 -15 -54.5 -46.5t-20.5 -69.5q0 -33 16 -62q-51 -30 -81.5 -81.5t-30.5 -112.5h448q0 61 -30.5 112.5t-81.5 81.5z" />
<glyph unicode="&#xe05e;" d="M448 480h64v-64h-64v64zM448 352h64v-64h-64v64zM448 224h64v-64h-64v64zM448 96h64v-64h-64v64zM384 416h64v-64h-64v64zM384 288h64v-64h-64v64zM384 160h64v-64h-64v64zM384 32h64v-64h-64v64zM320 480h64v-64h-64v64zM320 352h64v-64h-64v64zM320 224h64v-64h-64v64z M320 96h64v-64h-64v64zM256 416h64v-64h-64v64zM256 288h64v-64h-64v64zM256 160h64v-64h-64v64zM256 32h64v-64h-64v64zM192 480h64v-64h-64v64zM192 352h64v-64h-64v64zM192 224h64v-64h-64v64zM192 96h64v-64h-64v64zM128 416h64v-64h-64v64zM128 288h64v-64h-64v64z M128 160h64v-64h-64v64zM128 32h64v-64h-64v64zM64 480h64v-64h-64v64zM64 352h64v-64h-64v64zM64 224h64v-64h-64v64zM64 96h64v-64h-64v64zM0 416h64v-64h-64v64zM0 288h64v-64h-64v64zM0 160h64v-64h-64v64zM0 32h64v-64h-64v64z" />
<glyph unicode="&#xe05f;" d="M512 265.5q0 75.5 -19 129t-47 53.5h1h-42q-11 -8 -31 -21t-82 -40.5t-124 -40.5q-7 -37 -7 -80.5t7 -80.5q62 -13 121 -39t88 -44t28 -19h42h-1q28 0 47 53.5t19 129zM432.5 110q-5.5 0 -12.5 8q-10 11 -18 32q-18 47 -18 115t18 116q8 21 18 32q7 7 12.5 7t12.5 -7 q9 -11 17 -32q18 -48 18 -116t-18 -115q-8 -21 -17 -32q-7 -8 -12.5 -8zM126 265q0 39 5 75q-37 -5 -70 -5h-33l-28 -48v-44l28 -47h33q33 0 70 -5q-5 35 -5 74zM184 159l-64 12l41 -161q2 -6 7 -8.5t11 -0.5l60 24q6 2 8 8t-1 11zM432 206q-2 0 -4 3q-4 4 -7 12 q-7 18 -7 44.5t7 44.5q3 8 7 12q2 3 4 3t5 -3q4 -4 7 -12q7 -18 7 -44.5t-7 -44.5q-3 -8 -7 -12q-3 -3 -5 -3z" />
<glyph unicode="&#xe060;" d="M64 288h-64v-160h64v32l64 -18v-1v-45q0 -13 9.5 -22.5t22.5 -9.5h64q13 0 22.5 9.5t9.5 22.5v9l160 -46v298l-352 -101v32zM160 133l64 -19v-18h-64v37zM448 366v-316l64 -18v352z" />
<glyph unicode="&#xe061;" d="M448 384h-384q-26 0 -45 -19t-19 -45v-192q0 -26 19 -45t45 -19h384q26 0 45 19t19 45v192q0 26 -19 45t-45 19zM160 128h-32l-64 107v-107h-32v160h32l64 -107v107h32v-160zM288 256h-64v-32h64v-32h-64v-32h64v-32h-96v160h96v-32zM480 128h-48l-32 64l-32 -64h-48v160 h32v-128l32 64h32l32 -64v128h32v-160z" />
<glyph unicode="&#xe062;" horiz-adv-x="640" d="M320 192q79 0 136 -56l-46 -46q-37 38 -90 38t-90 -38l-46 46q57 56 136 56zM94 226q93 94 226 94t226 -94l-45 -45q-75 75 -181 75t-181 -75zM494 413q81 -34 143 -96l-45 -45q-55 54 -125 83t-147 29t-147 -29t-125 -83l-45 45q62 62 143 96q83 35 174 35t174 -35z M288 32q0 13 9.5 22.5t22.5 9.5t22.5 -9.5t9.5 -22.5t-9.5 -22.5t-22.5 -9.5t-22.5 9.5t-9.5 22.5z" />
<glyph unicode="&#xe063;" horiz-adv-x="640" d="M288 32q0 13 9.5 22.5t22.5 9.5t22.5 -9.5t9.5 -22.5t-9.5 -22.5t-22.5 -9.5t-22.5 9.5t-9.5 22.5zM320 384q168 0 298 -93q-54 74 -132 115.5t-166 41.5t-165.5 -41.5t-132.5 -115.5q130 93 298 93zM320 256q114 0 206 -55q-36 55 -90 87t-116 32t-116 -32t-90 -87 q92 55 206 55zM320 128q60 0 114 -15q-17 36 -47.5 57.5t-66.5 21.5t-66.5 -21.5t-47.5 -57.5q54 15 114 15z" />
<glyph unicode="&#xe064;" d="M512 224q0 106 -75 181t-181 75t-181 -75t-75 -181q0 -81 46.5 -147t120.5 -93l-7 -16h192l-7 16q74 27 120.5 93t46.5 147zM243 163q-19 8 -19 29q0 13 9.5 22.5t22.5 9.5t22.5 -9.5t9.5 -22.5q0 -21 -19 -29l-13 29zM269 161q22 5 36.5 22.5t14.5 40.5q0 27 -18.5 45.5 t-45.5 18.5t-45.5 -18.5t-18.5 -45.5q0 -23 14.5 -40.5t36.5 -22.5l-37 -87q-35 15 -56.5 47t-21.5 71q0 54 38 94t90 40t90 -40t38 -94q0 -39 -21.5 -71t-56.5 -47zM344 -14l-37 86q48 17 78.5 58.5t30.5 93.5q0 66 -47 113t-113 47t-113 -47t-47 -113q0 -52 30.5 -93.5 t78.5 -58.5l-37 -86q-61 26 -98.5 82t-37.5 124q0 93 66 161.5t158 68.5t158 -68.5t66 -161.5q0 -68 -37.5 -124t-98.5 -82z" />
<glyph unicode="&#xe065;" d="M320 320q0 27 -18.5 45.5t-45.5 18.5t-45.5 -18.5t-18.5 -45.5q0 -35 30 -54l-82 -298h40l8 32h136l8 -32h40l-82 298q30 19 30 54zM297 96h-82l8 32h66zM232 160l24 88l24 -88h-48zM197 32l9 32h100l9 -32h-118zM332 461q38 -21 61 -58.5t23 -82.5t-23 -82.5t-61 -58.5 q36 57 36 141t-36 141zM428 461q38 -21 61 -58.5t23 -82.5t-23 -82.5t-61 -58.5q36 57 36 141t-36 141zM180 179q-38 21 -61 58.5t-23 82.5t23 82.5t61 58.5q-36 -57 -36 -141t36 -141zM0 320q0 45 23 82.5t61 58.5q-36 -57 -36 -141t36 -141q-38 21 -61 58.5t-23 82.5z" />
<glyph unicode="&#xe066;" d="M192 224q0 26 19 45t45 19t45 -19t19 -45t-19 -45t-45 -19t-45 19t-19 45zM332 365q38 -21 61 -58.5t23 -82.5t-23 -82.5t-61 -58.5q36 57 36 141t-36 141zM144 224q0 -84 36 -141q-38 21 -61 58.5t-23 82.5t23 82.5t61 58.5q-36 -57 -36 -141zM48 224q0 -130 70 -216 q-54 35 -86 92t-32 124t32 124t86 92q-70 -86 -70 -216zM394 440q54 -35 86 -92t32 -124t-32 -124t-86 -92q70 86 70 216t-70 216z" />
<glyph unicode="&#xe067;" d="M224 96q0 13 9.5 22.5t22.5 9.5t22.5 -9.5t9.5 -22.5t-9.5 -22.5t-22.5 -9.5t-22.5 9.5t-9.5 22.5zM256 416q-71 0 -133.5 -29t-107.5 -80l24 -21q41 46 97 72t120 26t120 -26t97 -72l24 21q-45 51 -107.5 80t-133.5 29zM256 320q-50 0 -93.5 -20.5t-75.5 -55.5l25 -22 q57 66 144 66t144 -66l25 22q-32 35 -75.5 55.5t-93.5 20.5zM256 224q-58 0 -96 -44l24 -21q28 33 72 33t72 -33l24 21q-38 44 -96 44z" />
<glyph unicode="&#xe068;" d="M224 288l-128 -320h49l111 97l111 -97h49l-128 320h-64zM149 14l43 108l40 -35zM363 14l-83 73l40 35zM256 108l-52 45l42 103h20l42 -103zM367 416q17 -30 17 -64t-17 -64l28 -16q21 37 21 80t-21 80zM145 288q-17 30 -17 64t17 64l-28 16q-21 -37 -21 -80t21 -80z M34 480q-34 -59 -34 -128t34 -128l28 16q-30 52 -30 112t30 112zM512 352q0 69 -34 128l-28 -16q30 -52 30 -112t-30 -112l28 -16q34 59 34 128zM224 352q0 13 9.5 22.5t22.5 9.5t22.5 -9.5t9.5 -22.5t-9.5 -22.5t-22.5 -9.5t-22.5 9.5t-9.5 22.5z" />
<glyph unicode="&#xe069;" d="M256 480q-106 0 -181 -75t-75 -181t75 -181l23 23q-66 65 -66 158t65.5 158.5t158.5 65.5t158.5 -65.5t65.5 -158.5t-66 -158l23 -23q75 75 75 181t-75 181t-181 75zM256 480q-106 0 -181 -75t-75 -181t75 -181l23 23q-66 65 -66 158t65.5 158.5t158.5 65.5t158.5 -65.5 t65.5 -158.5t-66 -158l23 -23q75 75 75 181t-75 181t-181 75zM256 384q-66 0 -113 -47t-47 -113t47 -113l23 23q-38 37 -38 90t37.5 90.5t90.5 37.5t90.5 -37.5t37.5 -90.5t-38 -90l23 -23q47 47 47 113t-47 113t-113 47zM301 179q19 18 19 45t-18.5 45.5t-45.5 18.5 t-45.5 -18.5t-18.5 -45.5t19 -45l22 22q-9 10 -9 23t9.5 22.5t22.5 9.5t22.5 -9.5t9.5 -22.5t-9 -23zM244 192l-84 -224h192l-84 224h-24z" />
<glyph unicode="&#xe06a;" d="M160 -32h192l-64 64v233q32 18 32 55q0 27 -18.5 45.5t-45.5 18.5t-45.5 -18.5t-18.5 -45.5q0 -37 32 -55v-233zM356 400q28 -35 28 -80t-28 -80l25 -20q35 44 35 100t-35 100zM131 420q-35 -44 -35 -100t35 -100l25 20q-28 35 -28 80t28 80zM56 480q-56 -70 -56 -160 t56 -160l25 20q-49 61 -49 140t49 140zM456 480l-25 -20q49 -61 49 -140t-49 -140l25 -20q56 70 56 160t-56 160z" />
<glyph unicode="&#xe06b;" d="M256 96q53 0 90.5 37.5t37.5 90.5v64h-256v-64q0 -53 37.5 -90.5t90.5 -37.5zM448 320h-32v-96q0 -66 -47 -113t-113 -47t-113 47t-47 113v96h-32l-32 -32h32v-64q0 -71 45.5 -124.5t114.5 -64.5v-35l-64 -32h192l-64 32v35q69 11 114.5 64.5t45.5 124.5v64h32zM384 352 q0 53 -37.5 90.5t-90.5 37.5t-90.5 -37.5t-37.5 -90.5v-32h256v32z" />
<glyph unicode="&#xe06c;" d="M420 256v-64q0 -68 -48 -116t-116 -48t-116 48t-48 116v64h-28v-64q0 -71 45.5 -124.5t114.5 -64.5v-3h-96v-32h256v32h-96v3q69 11 114.5 64.5t45.5 124.5v64h-28zM256 480q-53 0 -90.5 -37.5t-37.5 -90.5v-160q0 -53 37.5 -90.5t90.5 -37.5t90.5 37.5t37.5 90.5v160 q0 53 -37.5 90.5t-90.5 37.5zM348 400q5 -9 8 -19v-93h-8v112zM332 423l8 -10v-125h-8v135zM316 437l8 -6v-143h-8v149zM300 446l8 -4v-154h-8v158zM284 452l8 -2v-162h-8v164zM268 455q4 0 8 -1v-166h-8v167zM252 456h4h4v-168h-8v168zM236 454q4 1 8 1v-167h-8v166z M220 450l8 2v-164h-8v162zM204 442l8 4v-158h-8v154zM188 431l8 6v-149h-8v143zM172 413l8 10v-135h-8v125zM156 381q3 10 8 19v-112h-8v93zM360 192q0 -43 -30.5 -73.5t-73.5 -30.5t-73.5 30.5t-30.5 73.5v64h208v-64z" />
<glyph unicode="&#xe06d;" d="M240 128q33 0 56.5 23.5t23.5 56.5v192q0 33 -23.5 56.5t-56.5 23.5t-56.5 -23.5t-23.5 -56.5v-192q0 -33 23.5 -56.5t56.5 -23.5zM352 256v-48q0 -46 -33 -79t-79 -33t-79 33t-33 79v48h-32v-48q0 -55 37 -96t91 -47v-65h-64v-32h64h32h64v32h-64v65q54 6 91 47t37 96 v48h-32z" />
<glyph unicode="&#xe06e;" d="M320 400q0 33 -23.5 56.5t-56.5 23.5t-56.5 -23.5t-23.5 -56.5v-172l160 160v12zM129 196q-1 6 -1 12v48h-32v-48q0 -20 5 -39zM352 208q0 -46 -33 -79t-79 -33q-50 0 -84 38l23 22q24 -28 61 -28q33 0 56.5 23.5t23.5 56.5v89l128 129l-22 22l-106 -105l-319 -321 l23 -22l110 111q36 -40 90 -46v-65h-64v-32h64h32h64v32h-64v65q54 6 91 47t37 96v48h-32v-48z" />
<glyph unicode="&#xe06f;" d="M229 312l-229 -280q0 -24 20 -44t44 -20l280 229q-42 11 -73 42t-42 73zM291 440q-35 -37 -35 -88q0 -53 37.5 -90.5t90.5 -37.5q51 0 88 35q-69 13 -118.5 62.5t-62.5 118.5zM416 416h32v-32h-32v32zM384 480q-34 0 -63 -17q6 -69 55.5 -118.5t118.5 -55.5q17 29 17 63 q0 53 -37.5 90.5t-90.5 37.5zM480 384h-32v-32h32v-32h-32v32h-32v32h-32v32h-32v32h32v-32h32v32h32v-32h32v-32z" />
<glyph unicode="&#xe070;" d="M384 416q-73 0 -128 -49q-55 49 -128 49t-128 -49v-9v-38v-192v-40v-7l0.5 -0.5l0.5 -0.5q12 -11 26 -20q15 12 31 20q33 16 70 16t70 -16q16 -8 31 -20q2 -2 5 -4q12 -11 22 -24q10 13 22 24q3 2 5 4q15 12 31 20q33 16 70 16t70 -16q16 -8 31 -20q14 9 26 20l0.5 0.5 l0.5 0.5v7v40v192v38v9q-55 49 -128 49zM128 128q-52 0 -96 -26v250q43 32 96 32t96 -32v-250q-44 26 -96 26zM384 128q-52 0 -96 -26v250q43 32 96 32t96 -32v-250q-44 26 -96 26z" />
<glyph unicode="&#xe071;" d="M448 416v-416h-336q-20 0 -34 14t-14 34t14 34t34 14h304v384h-320q-26 0 -45 -19t-19 -45v-384q0 -26 19 -45t45 -19h384v448h-32zM128 64h288v-32h-288v32z" />
<glyph unicode="&#xe072;" d="M288 335l121 41l102 -303l-121 -41zM0 32h128v352h-128v-352zM32 320h64v-32h-64v32zM160 32h128v352h-128v-352zM192 320h64v-32h-64v32z" />
<glyph unicode="&#xe073;" d="M176 400q0 33 23.5 56.5t56.5 23.5t56.5 -23.5t23.5 -56.5t-23.5 -56.5t-56.5 -23.5t-56.5 23.5t-23.5 56.5zM505 116l-128 160q-10 12 -25 12h-192q-15 0 -25 -12l-128 -160q-14 -18 -2 -37q9 -15 27 -15q3 0 6 1l90 18v-115h256v115l90 -18q3 -1 6 -1q18 0 27 15 q12 19 -2 37zM352 154l-26 5q-13 3 -24 -4.5t-13.5 -20.5t5 -24t20.5 -13l38 -8v-25l-96 -32l-96 32v25l38 8q13 2 20.5 13t5 24t-13.5 20.5t-24 4.5l-26 -5v70l96 -32l96 32v-70z" />
<glyph unicode="&#xe074;" horiz-adv-x="544" d="M272 480l-272 -128h544zM128 288v32h-96v-32h32v-192h-32v-32h96v32h-32v192h32zM256 288v32h-96v-32h32v-192h-32v-32h96v32h-32v192h32zM384 288v32h-96v-32h32v-192h-32v-32h96v32h-32v192h32zM512 288v32h-96v-32h32v-192h-32v-32h96v32h-32v192h32zM32 32l-32 -64 h544l-32 64h-480z" />
<glyph unicode="&#xe075;" d="M256 480l-256 -160h512zM400 288l16 -32v-192h64v192l16 32h-96zM272 288l16 -32v-192h64v192l16 32h-96zM144 288l16 -32v-192h64v192l16 32h-96zM16 288l16 -32v-192h64v192l16 32h-96zM16 32l-16 -64h512l-16 64h-480zM288 384q0 -13 -9.5 -22.5t-22.5 -9.5t-22.5 9.5 t-9.5 22.5t9.5 22.5t22.5 9.5t22.5 -9.5t9.5 -22.5z" />
<glyph unicode="&#xe076;" d="M96 186v-74q0 -26 49 -53t111 -27t111 27t49 53v74l-160 -80zM256 416l-256 -128l256 -128l208 104l-16 -136h32v144l32 16zM272 281q-10 0 -16.5 6.5t-6.5 16.5t6.5 16.5t16.5 6.5t16.5 -6.5t6.5 -16.5t-6.5 -16.5t-16.5 -6.5z" />
<glyph unicode="&#xe077;" d="M432 480h-384q-20 0 -34 -14t-14 -34v-416q0 -20 14 -34t34 -14h384q20 0 34 14t14 34v416q0 20 -14 34t-34 14zM416 32h-352v384h352v-384zM128 256h224v-32h-224v32zM128 192h224v-32h-224v32zM128 128h224v-32h-224v32zM128 320h224v-32h-224v32z" />
<glyph unicode="&#xe078;" d="M432 480h-384q-20 0 -34 -14t-14 -34v-416q0 -20 14 -34t34 -14h384q20 0 34 14t14 34v416q0 20 -14 34t-34 14zM416 32h-352v384h352v-384zM128 192h224v-32h-224v32zM128 128h224v-32h-224v32zM160 336q0 20 14 34t34 14t34 -14t14 -34t-14 -34t-34 -14t-34 14t-14 34z M240 288h-64q-20 0 -34 -9.5t-14 -22.5v-32h160v32q0 13 -14 22.5t-34 9.5z" />
<glyph unicode="&#xe079;" d="M446 386l-60 60q-14 14 -38 24t-44 10h-224q-20 0 -34 -14t-14 -34v-416q0 -20 14 -34t34 -14h352q20 0 34 14t14 34v288q0 20 -10 44t-24 38zM416 32h-320v384h208q6 0 16 -4v-92h92q4 -10 4 -16v-272z" />
<glyph unicode="&#xe07a;" d="M446 386l-60 60q-14 14 -38 24t-44 10h-224q-20 0 -34 -14t-14 -34v-416q0 -20 14 -34t34 -14h352q20 0 34 14t14 34v288q0 20 -10 44t-24 38zM320 412q2 0 3 -1q13 -5 18 -10l60 -60q5 -5 10 -18q1 -1 1 -3h-92v92zM416 32h-320v384h192v-128h128v-256z" />
<glyph unicode="&#xe07b;" d="M446 386l-60 60q-14 14 -38 24t-44 10h-224q-20 0 -34 -14t-14 -34v-416q0 -20 14 -34t34 -14h352q20 0 34 14t14 34v288q0 20 -10 44t-24 38zM320 412q2 0 3 -1q13 -5 18 -10l60 -60q5 -5 10 -18q1 -1 1 -3h-92v92zM416 32h-320v384h192v-128h128v-256zM128 224h256v-32 h-256v32zM128 160h256v-32h-256v32zM128 96h256v-32h-256v32z" />
<glyph unicode="&#xe07c;" d="M452 380q23 -23 27 -60h-159v159q37 -4 60 -27zM288 288h192v-280q0 -16 -12 -28t-28 -12h-368q-16 0 -28 12t-12 28v432q0 16 12 28t28 12h216v-192z" />
<glyph unicode="&#xe07d;" d="M452 380q23 -23 27 -60h-159v159q37 -4 60 -27zM288 288v192h-216q-16 0 -28 -12t-12 -28v-432q0 -16 12 -28t28 -12h368q16 0 28 12t12 28v280h-192zM416 32h-320v32h320v-32zM416 96h-320v32h320v-32zM416 160h-320v32h320v-32z" />
<glyph unicode="&#xe07e;" d="M484 284q23 -23 27 -60h-159v159q37 -4 60 -27zM320 192h192v-184q0 -16 -12 -28t-28 -12h-304q-16 0 -28 12t-12 28v336q0 16 12 28t28 12h152v-192zM96 416v-352h-58q-16 0 -27 11t-11 27v340q0 16 11 27t27 11h308q16 0 27 -11t11 -27v-26h-288z" />
<glyph unicode="&#xe07f;" d="M452 380q23 -23 27 -60h-159v159q37 -4 60 -27zM288 288v192h-216q-16 0 -28 -12t-12 -28v-432q0 -16 12 -28t28 -12h368q16 0 28 12t12 28v280h-192zM352 96h-64v-64h-64v64h-64v64h64v64h64v-64h64v-64z" />
<glyph unicode="&#xe080;" d="M452 380q23 -23 27 -60h-159v159q37 -4 60 -27zM288 288v192h-216q-16 0 -28 -12t-12 -28v-432q0 -16 12 -28t28 -12h368q16 0 28 12t12 28v280h-192zM352 96h-192v64h192v-64z" />
<glyph unicode="&#xe081;" d="M420 380q23 -23 27 -60h-159v159q37 -4 60 -27zM256 288v192h-184q-16 0 -28 -12t-12 -28v-432q0 -16 12 -28t28 -12h336q16 0 28 12t12 28v280h-192zM240 0l-128 128h80v96h96v-96h80z" />
<glyph unicode="&#xe082;" d="M420 380q23 -23 27 -60h-159v159q37 -4 60 -27zM256 288v192h-184q-16 0 -28 -12t-12 -28v-432q0 -16 12 -28t28 -12h336q16 0 28 12t12 28v280h-192zM288 96v-96h-96v96h-80l128 128l128 -128h-80z" />
<glyph unicode="&#xe083;" d="M452 380q23 -23 27 -60h-159v159q37 -4 60 -27zM288 288v192h-216q-16 0 -28 -12t-12 -28v-432q0 -16 12 -28t28 -12h368q16 0 28 12t12 28v280h-192zM215 21l-103 118l30 30l73 -58l137 122l30 -30z" />
<glyph unicode="&#xe084;" d="M452 380q23 -23 27 -60h-159v159q37 -4 60 -27zM288 288v192h-216q-16 0 -28 -12t-12 -28v-432q0 -16 12 -28t28 -12h368q16 0 28 12t12 28v280h-192zM352 190l-62 -62l62 -62v-34h-34l-62 62l-62 -62h-34v34l62 62l-62 62v34h34l62 -62l62 62h34v-34z" />
<glyph unicode="&#xe085;" d="M352 480h-320v-512h448v384zM448 0h-384v448h288v-96h96v-352z" />
<glyph unicode="&#xe086;" d="M352 480h-320v-512h448v384zM448 0h-384v448h288v-96h96v-352zM128 96h256v-32h-256v32zM128 160h256v-32h-256v32zM128 224h256v-32h-256v32z" />
<glyph unicode="&#xe087;" d="M448 96v64h-64v-64h-64v-64h64v-64h64v64h64v64h-64zM32 448h288v-96h96v-160h32v160l-128 128h-320v-512h288v32h-256v448z" />
<glyph unicode="&#xe088;" d="M320 96h192v-64h-192v64zM32 448h288v-96h96v-160h32v160l-128 128h-320v-512h288v32h-256v448z" />
<glyph unicode="&#xe089;" d="M288 256h-96v-160h-80l128 -128l128 128h-80v160zM320 480h-288v-192l16 -320l16 320v160h256v-96h96v-64l16 -320l16 320v64z" />
<glyph unicode="&#xe08a;" d="M192 -32h96v160h80l-128 128l-128 -128h80v-160zM320 480h-288v-192l16 -320l16 320v160h256v-96h96v-64l16 -320l16 320v64z" />
<glyph unicode="&#xe08b;" d="M352 -32l-96 112l41 41l55 -56l128 127l32 -32zM32 448h288v-96h96v-160h32v160l-128 128h-320v-512h288v32h-256v448z" />
<glyph unicode="&#xe08c;" d="M32 448h288v-96h96v-160h32v160l-128 128h-320v-512h288v32h-256v448zM461 64l51 51v45h-45l-51 -51l-51 51h-45v-45l51 -51l-51 -51v-45h45l51 51l51 -51h45v45z" />
<glyph unicode="&#xe08d;" d="M452 380l-72 72q-11 11 -31.5 19.5t-36.5 8.5h-240q-16 0 -28 -12t-12 -28v-432q0 -16 12 -28t28 -12h368q16 0 28 12t12 28v304q0 17 -8.5 37t-19.5 31zM429 358q2 -3 5 -6h-82v82q3 -3 6 -5zM448 8q0 -8 -8 -8h-368q-8 0 -8 8v432q0 8 8 8h240q4 0 8 -1v-127h127 q1 -4 1 -8v-304z" />
<glyph unicode="&#xe08e;" d="M416 352h-96v32l-96 96h-224v-384h192v-128h320v288zM416 307l51 -51h-51v51zM224 435l51 -51h-51v51zM32 448h160v-96h96v-224h-256v320zM480 0h-256v96h96v224h64v-96h96v-224z" />
<glyph unicode="&#xe08f;" d="M432 416h-32v-32h16v-256h-128v-128h-192v384h16v32h-32q-7 0 -11.5 -4.5t-4.5 -11.5v-416q0 -7 4.5 -11.5t11.5 -4.5h252l116 116v316q0 7 -4.5 11.5t-11.5 4.5zM320 0v96h96zM384 416h-64v32q0 13 -9.5 22.5t-22.5 9.5h-64q-13 0 -22.5 -9.5t-9.5 -22.5v-32h-64v-64 h256v64zM288 416h-64v32h64v-32z" />
<glyph unicode="&#xe090;" d="M432 416q7 0 11.5 -4.5t4.5 -11.5v-304l-128 -128h-240q-7 0 -11.5 4.5t-4.5 11.5v416q0 7 4.5 11.5t11.5 4.5h32v-32h-16v-384h192v128h128v256h-16v32h32zM384 416h-64v32q0 13 -9.5 22.5t-22.5 9.5h-64q-13 0 -22.5 -9.5t-9.5 -22.5v-32h-64v-64h256v64zM288 416h-64 v32h64v-32z" />
<glyph unicode="&#xe091;" d="M320 352v128h-224l-96 -96v-288h192v-128h320v384h-192zM96 435v-51h-51zM32 128v224h96v96h160v-96l-96 -96v-128h-160zM288 307v-51h-51zM480 0h-256v224h96v96h160v-320z" />
<glyph unicode="&#xe092;" d="M352 416h-64v32q0 13 -9.5 22.5t-22.5 9.5h-64q-13 0 -22.5 -9.5t-9.5 -22.5v-32h-64v-64h256v64zM256 416h-64v32h64v-32zM416 320v80q0 7 -4.5 11.5t-11.5 4.5h-32v-32h16v-64h-192v-224h-128v288h16v32h-32q-7 0 -11.5 -4.5t-4.5 -11.5v-320q0 -7 4.5 -11.5t11.5 -4.5 h144v-96h224l96 96v256h-96zM416 13v51h51zM480 96h-96v-96h-160v288h256v-192z" />
<glyph unicode="&#xe093;" d="M416 320v80q0 7 -4.5 11.5t-11.5 4.5h-112v32q0 13 -9.5 22.5t-22.5 9.5h-64q-13 0 -22.5 -9.5t-9.5 -22.5v-32h-112q-7 0 -11.5 -4.5t-4.5 -11.5v-320q0 -7 4.5 -11.5t11.5 -4.5h144v-96h224l96 96v256h-96zM192 448h64v-32h-64v32zM96 352v32h256v-32h-256zM416 13v51 h51zM480 96h-96v-96h-160v288h256v-192z" />
<glyph unicode="&#xe094;" d="M352 416h-64v32q0 13 -9.5 22.5t-22.5 9.5h-64q-13 0 -22.5 -9.5t-9.5 -22.5v-32h-64v-64h256v64zM256 416h-64v32h64v-32zM416 320v80q0 7 -4.5 11.5t-11.5 4.5h-32v-32h16v-64h-96l-96 -96v-128h-128v288h16v32h-32q-7 0 -11.5 -4.5t-4.5 -11.5v-320q0 -7 4.5 -11.5 t11.5 -4.5h144v-96h320v352h-96zM288 275v-51h-51zM480 0h-256v192h96v96h160v-288z" />
<glyph unicode="&#xe095;" d="M440 352h-24v24q0 17 -11.5 28.5t-28.5 11.5h-24v24q0 17 -11.5 28.5t-28.5 11.5h-240q-17 0 -28.5 -11.5t-11.5 -28.5v-304q0 -17 11.5 -28.5t28.5 -11.5h24v-24q0 -17 11.5 -28.5t28.5 -11.5h24v-24q0 -17 11.5 -28.5t28.5 -11.5h240q17 0 28.5 11.5t11.5 28.5v304 q0 17 -11.5 28.5t-28.5 11.5zM72 128q-8 0 -8 8v304q0 8 8 8h240q8 0 8 -8v-24h-184q-17 0 -28.5 -11.5t-11.5 -28.5v-248h-24zM136 64q-8 0 -8 8v304q0 8 8 8h240q8 0 8 -8v-24h-184q-17 0 -28.5 -11.5t-11.5 -28.5v-248h-24zM448 8q0 -8 -8 -8h-240q-8 0 -8 8v304q0 8 8 8 h240q8 0 8 -8v-304z" />
<glyph unicode="&#xe096;" d="M512 320l-256 128l-256 -128l256 -128zM256 406l171 -86l-171 -86l-171 86zM461 250l51 -26l-256 -128l-256 128l51 26l205 -103zM461 154l51 -26l-256 -128l-256 128l51 26l205 -103z" />
<glyph unicode="&#xe097;" d="M256 192l-256 128l256 128l256 -128zM461 250l51 -26l-256 -128l-256 128l51 26l205 -103zM461 154l51 -26l-256 -128l-256 128l51 26l205 -103z" />
<glyph unicode="&#xe098;" d="M0 320h512l-32 -320h-448zM464 384l16 -32h-448l32 64h176l16 -32h208z" />
<glyph unicode="&#xe099;" d="M480 352h-448l32 64h176l16 -32h208zM0 320l32 -320h448l32 320h-512zM256 16l-144 144h112v96h64v-96h112z" />
<glyph unicode="&#xe09a;" d="M480 352h-448l32 64h176l16 -32h208zM0 320l32 -320h448l32 320h-512zM288 128v-96h-64v96h-112l144 144l144 -144h-112z" />
<glyph unicode="&#xe09b;" d="M480 352h-448l32 64h176l16 -32h208zM250 80q0 -43 23 -80h-241l-32 320h512l-13 -128q-42 38 -99 38q-62 0 -106 -44t-44 -106zM400 192q-46 0 -79 -33t-33 -79t33 -79t79 -33t79 33t33 79t-33 79t-79 33zM416 64v-64h-32v64h-64v32h64v64h32v-64h64v-32h-64z" />
<glyph unicode="&#xe09c;" d="M480 352h-448l32 64h176l16 -32h208zM0 320l32 -320h448l32 320h-512zM352 128h-64v-64h-64v64h-64v64h64v64h64v-64h64v-64z" />
<glyph unicode="&#xe09d;" d="M480 352h-448l32 64h176l16 -32h208zM250 80q0 -43 23 -80h-241l-32 320h512l-13 -128q-42 38 -99 38q-62 0 -106 -44t-44 -106zM400 192q-46 0 -79 -33t-33 -79t33 -79t79 -33t79 33t33 79t-33 79t-79 33zM320 64v32h160v-32h-160z" />
<glyph unicode="&#xe09e;" d="M480 352h-448l32 64h176l16 -32h208zM0 320l32 -320h448l32 320h-512zM352 128h-192v64h192v-64z" />
<glyph unicode="&#xe09f;" d="M480 352h-448l32 64h176l16 -32h208zM0 320l32 -320h448l32 320h-512zM215 53l-103 118l30 30l73 -58l137 122l30 -30z" />
<glyph unicode="&#xe0a0;" d="M480 352h-448l32 64h176l16 -32h208zM0 320l32 -320h448l32 320h-512zM352 222l-62 -62l62 -62v-34h-34l-62 62l-62 -62h-34v34l62 62l-62 62v34h34l62 -62l62 62h34v-34z" />
<glyph unicode="&#xe0a1;" d="M224 416l64 -64h224v-352h-512v416h224z" />
<glyph unicode="&#xe0a2;" d="M416 0l96 256h-416l-96 -256h416zM64 288l-64 -288v416h144l64 -64h208v-64h-352z" />
<glyph unicode="&#xe0a3;" d="M288 352l-64 64h-224v-416h512v352h-224zM275 320h13h192v-4h-448v8h239zM32 32v4h448v-4h-448zM32 44v8h448v-8h-448zM32 60v8h448v-8h-448zM32 76v8h448v-8h-448zM32 92v8h448v-8h-448zM32 108v8h448v-8h-448zM32 124v8h448v-8h-448zM32 140v8h448v-8h-448zM32 156v8 h448v-8h-448zM32 172v8h448v-8h-448zM32 188v8h448v-8h-448zM32 204v8h448v-8h-448zM32 220v8h448v-8h-448zM32 236v8h448v-8h-448zM32 252v8h448v-8h-448zM32 268v8h448v-8h-448zM32 284v8h448v-8h-448zM32 300v8h448v-8h-448zM211 384l4 -4h-183v4h179zM223 372l8 -8h-199 v8h191zM239 356l8 -8h-215v8h207zM255 340l8 -8h-231v8h223z" />
<glyph unicode="&#xe0a4;" d="M211 384l54 -55l10 -9h13h192v-288h-448v352h179zM224 416h-224v-416h512v352h-224z" />
<glyph unicode="&#xe0a5;" d="M288 352l-64 64h-224v-416h512v352h-224zM352 128h-64v-64h-64v64h-64v64h64v64h64v-64h64v-64z" />
<glyph unicode="&#xe0a6;" d="M288 352l-64 64h-224v-416h512v352h-224zM352 128h-192v64h192v-64z" />
<glyph unicode="&#xe0a7;" d="M288 352l-64 64h-224v-416h512v352h-224zM480 32h-448v352h179l54 -55l10 -9h13h192v-288zM288 256h-64v-64h-64v-64h64v-64h64v64h64v64h-64v64z" />
<glyph unicode="&#xe0a8;" d="M288 352l-64 64h-224v-416h512v352h-224zM480 32h-448v352h179l54 -55l10 -9h13h192v-288zM160 192h192v-64h-192v64z" />
<glyph unicode="&#xe0a9;" d="M288 352l-64 64h-224v-416h512v352h-224zM256 32l-128 128h96v128h64v-128h96z" />
<glyph unicode="&#xe0aa;" d="M288 352l-64 64h-224v-416h224v128h-96l128 128l128 -128h-96v-128h224v352h-224z" />
<glyph unicode="&#xe0ab;" d="M288 352l-64 64h-224v-416h512v352h-224zM480 32h-224h-224v352h179l54 -55l10 -9h13h192v-288zM288 160v96h-64v-96h-96l128 -128l128 128h-96z" />
<glyph unicode="&#xe0ac;" d="M288 352l-64 64h-224v-416h512v352h-224zM480 32h-192v96h96l-128 128l-128 -128h96v-96h-192v352h179l54 -55l10 -9h13h192v-288z" />
<glyph unicode="&#xe0ad;" d="M492 352h-472q-10 0 -15.5 -7t-4.5 -17l59 -272q2 -10 10.5 -17t18.5 -7h336q10 0 18.5 7t10.5 17l59 272q1 10 -4.5 17t-15.5 7zM448 392q0 10 -7 17t-17 7h-216l-16 32h-104q-10 0 -17 -7t-7 -17v-56h384v24z" />
<glyph unicode="&#xe0ae;" d="M492 288q10 0 15.5 -7t4.5 -17l-59 -208q-2 -10 -10.5 -17t-18.5 -7h-336q-10 0 -18.5 7t-10.5 17l-59 208q-1 10 4.5 17t15.5 7h472zM448 392v-72h-384v104q0 10 7 17t17 7h104l16 -32h216q10 0 17 -7t7 -17z" />
<glyph unicode="&#xe0af;" d="M492 352h-44v40q0 10 -7 17t-17 7h-216l-16 32h-104q-10 0 -17 -7t-7 -17v-72h-44q-10 0 -15.5 -7t-4.5 -17l59 -272q2 -10 10.5 -17t18.5 -7h336q10 0 18.5 7t10.5 17l59 272q1 10 -4.5 17t-15.5 7zM96 416h76l16 -32h228v-32h-320v64zM422 64h-332l-55 256h442z" />
<glyph unicode="&#xe0b0;" d="M492 288h-44v104q0 10 -7 17t-17 7h-216l-16 32h-104q-10 0 -17 -7t-7 -17v-136h-44q-10 0 -15.5 -7t-4.5 -17l59 -208q2 -10 10.5 -17t18.5 -7h336q10 0 18.5 7t10.5 17l59 208q1 10 -4.5 17t-15.5 7zM96 416h76l16 -32h228v-96h-320v128zM422 64h-332l-55 192h442z" />
<glyph unicode="&#xe0b1;" d="M32 480v-512h448v512h-448zM448 0h-384v448h384v-448zM96 384h160v-32h-160v32zM96 320h160v-32h-160v32zM96 256h160v-32h-160v32zM96 192h160v-32h-160v32zM96 128h160v-32h-160v32zM96 64h320v-32h-320v32zM384 256v-160l-32 48l-32 -48v160h64zM416 371l-19 -19 l19 -19v-13h-32v-32h-13l-19 19l-19 -19h-13v32h-32v13l19 19l-19 19v13h32v32h13l19 -19l19 19h13v-32h32v-13z" />
<glyph unicode="&#xe0b2;" d="M256 480q-107 0 -180 -74q-76 -77 -76 -182t75 -180q76 -76 181 -76t183 76q73 72 73 180q0 107 -74 181q-75 75 -182 75zM256 434q87 0 149 -62q60 -60 60 -148t-59 -147q-64 -62 -150 -62q-85 0 -147 62t-62 147t62 149q60 61 147 61zM253 267q-20 36 -68 36 q-32 0 -53.5 -21.5t-21.5 -57.5q0 -37 21 -58t56 -21q44 0 67 40l-32 16q-9 -22 -31 -22q-17 0 -26 12.5t-9 32.5q0 45 35 45q18 0 28 -20zM401 267q-20 36 -68 36q-32 0 -53.5 -21.5t-21.5 -57.5q0 -37 21 -58t55 -21q45 0 68 40l-32 16q-9 -22 -32 -22q-17 0 -25.5 12.5 t-8.5 32.5q0 45 34 45q19 0 29 -20z" />
<glyph unicode="&#xe0b3;" d="M500 236l-119 120q-12 11 -32 19.5t-37 8.5h-272q-16 0 -28 -12t-12 -28v-272q0 -16 12 -28t28 -12h272q17 0 37 8.5t32 19.5l119 120q12 11 12 28t-12 28zM368 160q-20 0 -34 14t-14 34t14 34t34 14t34 -14t14 -34t-14 -34t-34 -14z" />
<glyph unicode="&#xe0b4;" d="M312 320h-248v-224h248q14 1 24 10l102 102l-102 102q-10 9 -24 10zM312 384q17 0 37 -8.5t32 -19.5l119 -120q12 -11 12 -28t-12 -28l-119 -120q-12 -11 -32 -19.5t-37 -8.5h-272q-16 0 -28 12t-12 28v272q0 16 12 28t28 12h272zM256 208q0 20 14 34t34 14t34 -14 t14 -34t-14 -34t-34 -14t-34 14t-14 34z" />
<glyph unicode="&#xe0b5;" d="M312 352h-272q-3 0 -5.5 -2.5t-2.5 -5.5v-272q0 -8 8 -8h272q11 0 25 6t21 13l120 119q2 3 2 6t-2 6l-120 119q-7 7 -21 13t-25 6zM312 384q17 0 37 -8.5t32 -19.5l119 -120q12 -11 12 -28t-12 -28l-119 -120q-12 -11 -32 -19.5t-37 -8.5h-272q-16 0 -28 12t-12 28v272 q0 16 12 28t28 12h272zM288 208q0 20 14 34t34 14t34 -14t14 -34t-14 -34t-34 -14t-34 14t-14 34z" />
<glyph unicode="&#xe0b6;" d="M272 480l-272 -272l240 -240l272 272v240h-240zM400 320q-20 0 -34 14t-14 34t14 34t34 14t34 -14t14 -34t-14 -34t-34 -14z" />
<glyph unicode="&#xe0b7;" d="M464 480h-144q-20 0 -44 -10t-38 -24l-224 -224q-14 -14 -14 -33.5t14 -34.5l172 -172q15 -14 34.5 -14t33.5 14l224 224q14 14 24 38t10 44v144q0 20 -14 34t-34 14zM400 320q-20 0 -34 14t-14 34t14 34t34 14t34 -14t14 -34t-14 -34t-34 -14z" />
<glyph unicode="&#xe0b8;" d="M448 416h-149l-208 -208l149 -149l208 208v149zM512 480v-240l-272 -272l-240 240l272 272h240zM320 336q0 20 14 34t34 14t34 -14t14 -34t-14 -34t-34 -14t-34 14t-14 34z" />
<glyph unicode="&#xe0b9;" d="M448 416h-128q-7 0 -19.5 -5t-17.5 -10l-212 -213l149 -149l213 212q5 5 10 17.5t5 19.5v128zM464 480q20 0 34 -14t14 -34v-144q0 -20 -10 -44t-24 -38l-224 -224q-14 -14 -33.5 -14t-34.5 14l-172 172q-14 15 -14 34.5t14 33.5l224 224q14 14 38 24t44 10h144zM320 336 q0 20 14 34t34 14t34 -14t14 -34t-14 -34t-34 -14t-34 14t-14 34z" />
<glyph unicode="&#xe0ba;" horiz-adv-x="544" d="M496 448h-112q-20 0 -44 -10t-38 -24l-188 -188q-14 -14 -14 -34t14 -34l140 -140q14 -14 34 -14t34 14l188 188q14 14 24 38t10 44v112q0 20 -14 34t-34 14zM432 288q-20 0 -34 14t-14 34t14 34t34 14t34 -14t14 -34t-14 -34t-34 -14zM43 181l172 -172q-14 -7 -30 -4.5 t-27 13.5l-140 140q-14 14 -14 34t14 34l188 188q14 14 38 24t44 10l-245 -245q-11 -11 0 -22z" />
<glyph unicode="&#xe0bb;" horiz-adv-x="544" d="M480 384h-96q-7 0 -19.5 -5t-17.5 -10l-176 -177l117 -117l177 176q5 5 10 17.5t5 19.5v96zM496 448q20 0 34 -14t14 -34v-112q0 -20 -10 -44t-24 -38l-188 -188q-14 -14 -34 -14t-34 14l-140 140q-14 14 -14 34t14 34l188 188q14 14 38 24t44 10h112zM43 181l172 -172 q-14 -7 -30 -4.5t-27 13.5l-140 140q-14 14 -14 34t14 34l188 188q14 14 38 24t44 10l-245 -245q-11 -11 0 -22zM384 320q0 13 9.5 22.5t22.5 9.5t22.5 -9.5t9.5 -22.5t-9.5 -22.5t-22.5 -9.5t-22.5 9.5t-9.5 22.5z" />
<glyph unicode="&#xe0bc;" d="M192 224h32v-64h-32v64zM256 128h32v-64h-32v64zM400 337l-115 126q-16 17 -38 17h-14q-22 0 -38 -17l-115 -126q-16 -17 -16 -41v-304q0 -10 6.5 -17t15.5 -7h308q9 0 15.5 7t6.5 17v304q0 24 -16 41zM320 224h-64v-64h64v-8v-24v-64v-24v-8h-64v-32h-32v32h-64v32h64 v64h-64v16v16v64v32h32h32v32h32v-32h64v-32zM265 400q0 -10 -7.5 -17.5t-17.5 -7.5t-17.5 7.5t-7.5 17.5t7.5 17.5t17.5 7.5t17.5 -7.5t7.5 -17.5z" />
<glyph unicode="&#xe0bd;" d="M0 384h64v-320h-64v320zM96 384h32v-320h-32v320zM160 384h32v-320h-32v320zM256 384h32v-320h-32v320zM384 384h32v-320h-32v320zM480 384h32v-320h-32v320zM320 384h16v-320h-16v320zM224 384h16v-320h-16v320zM432 384h16v-320h-16v320z" />
<glyph unicode="&#xe0be;" d="M0 416h64v-320h-64v320zM96 416h32v-320h-32v320zM160 416h32v-320h-32v320zM256 416h32v-320h-32v320zM384 416h32v-320h-32v320zM480 416h32v-320h-32v320zM320 416h16v-320h-16v320zM224 416h16v-320h-16v320zM432 416h16v-320h-16v320zM0 64h32v-32h-32v32zM96 64h32 v-32h-32v32zM160 64h32v-32h-32v32zM320 64h32v-32h-32v32zM480 64h32v-32h-32v32zM384 64h64v-32h-64v32zM224 64h64v-32h-64v32z" />
<glyph unicode="&#xe0bf;" d="M160 448h-128v-128h128v128zM192 480v-192h-192v192h192zM64 416h64v-64h-64v64zM480 448h-128v-128h128v128zM512 480v-192h-192v192h192zM384 416h64v-64h-64v64zM160 128h-128v-128h128v128zM192 160v-192h-192v192h192zM64 96h64v-64h-64v64zM224 480h32v-32h-32v32z M256 448h32v-32h-32v32zM224 416h32v-32h-32v32zM256 384h32v-32h-32v32zM224 352h32v-32h-32v32zM256 320h32v-32h-32v32zM224 288h32v-32h-32v32zM224 224h32v-32h-32v32zM256 192h32v-32h-32v32zM224 160h32v-32h-32v32zM256 128h32v-32h-32v32zM224 96h32v-32h-32v32z M256 64h32v-32h-32v32zM224 32h32v-32h-32v32zM256 0h32v-32h-32v32zM480 224h32v-32h-32v32zM32 224h32v-32h-32v32zM64 256h32v-32h-32v32zM0 256h32v-32h-32v32zM128 256h32v-32h-32v32zM160 224h32v-32h-32v32zM192 256h32v-32h-32v32zM288 224h32v-32h-32v32zM320 256 h32v-32h-32v32zM352 224h32v-32h-32v32zM384 256h32v-32h-32v32zM416 224h32v-32h-32v32zM448 256h32v-32h-32v32zM480 160h32v-32h-32v32zM288 160h32v-32h-32v32zM320 192h32v-32h-32v32zM352 160h32v-32h-32v32zM416 160h32v-32h-32v32zM448 192h32v-32h-32v32zM480 96 h32v-32h-32v32zM288 96h32v-32h-32v32zM320 128h32v-32h-32v32zM384 128h32v-32h-32v32zM416 96h32v-32h-32v32zM448 128h32v-32h-32v32zM480 32h32v-32h-32v32zM320 64h32v-32h-32v32zM352 32h32v-32h-32v32zM384 64h32v-32h-32v32zM416 32h32v-32h-32v32zM320 0h32v-32 h-32v32zM384 0h32v-32h-32v32zM448 0h32v-32h-32v32z" />
<glyph unicode="&#xe0c0;" d="M288 320l64 -64l-128 -128l-64 64zM501 331l-37 37l-16 -16q-13 -13 -32 -13t-32 13t-13 32t13 32l16 16l-37 37q-11 11 -27 11t-27 -11l-298 -298q-11 -11 -11 -27t11 -27l37 -37l16 16q13 13 32 13t32 -13t13 -32t-13 -32l-16 -16l37 -37q11 -11 27 -11t27 11l298 298 q11 11 11 27t-11 27zM224 64l-128 128l192 192l128 -128z" />
<glyph unicode="&#xe0c1;" d="M64 16q0 20 14 34t34 14t34 -14t14 -34t-14 -34t-34 -14t-34 14t-14 34zM384 16q0 20 14 34t34 14t34 -14t14 -34t-14 -34t-34 -14t-34 14t-14 34zM480 224v192h-416q0 27 -18.5 45.5t-45.5 18.5v-32q13 0 22.5 -9.5t9.5 -22.5l24 -206q-24 -19 -24 -50q0 -27 18.5 -45.5 t45.5 -18.5h384v32h-384q-13 0 -22.5 9.5t-9.5 22.5z" />
<glyph unicode="&#xe0c2;" d="M424 192q13 0 25 9t15 22l47 162q3 13 -3.5 22t-19.5 9h-328q0 27 -18.5 45.5t-45.5 18.5h-96v-64h96v-272q0 -20 14 -34t34 -14h304q13 0 22.5 9.5t9.5 22.5t-9.5 22.5t-22.5 9.5h-288v32h264zM160 352h289l-27 -96h-262v96zM192 8q0 -16 -12 -28t-28 -12h-16 q-16 0 -28 12t-12 28v16q0 16 12 28t28 12h16q16 0 28 -12t12 -28v-16zM480 8q0 -16 -12 -28t-28 -12h-16q-16 0 -28 12t-12 28v16q0 16 12 28t28 12h16q16 0 28 -12t12 -28v-16z" />
<glyph unicode="&#xe0c3;" d="M424 192q13 0 25 9t15 22l47 162q3 13 -3.5 22t-19.5 9h-328q0 27 -18.5 45.5t-45.5 18.5h-96v-64h96v-272q0 -20 14 -34t34 -14h304q13 0 22.5 9.5t9.5 22.5t-9.5 22.5t-22.5 9.5h-288v32h264zM160 256v4h263l-1 -4h-262zM441 324l-2 -8h-279v8h281zM160 332v8h286 l-2 -8h-284zM437 308l-2 -8h-275v8h277zM432 292l-2 -8h-270v8h272zM428 276l-3 -8h-265v8h268zM449 352l-1 -4h-288v4h289zM152 64q16 0 28 -12t12 -28v-16q0 -16 -12 -28t-28 -12h-16q-16 0 -28 12t-12 28v16q0 16 12 28t28 12h16zM440 64q16 0 28 -12t12 -28v-16 q0 -16 -12 -28t-28 -12h-16q-16 0 -28 12t-12 28v16q0 16 12 28t28 12h16z" />
<glyph unicode="&#xe0c4;" d="M489 382.5q13 -3.5 19 -15t3 -24.5l-64 -224q-3 -10 -11.5 -16.5t-19.5 -6.5h-272q-12 0 -21 8t-11 20l-28 228h-52q-13 0 -22.5 9.5t-9.5 22.5t9.5 22.5t22.5 9.5h80q12 0 21 -8t11 -20l28 -228h220l57 201q4 13 15.5 19t24.5 2.5zM128 16q0 20 14 34t34 14t34 -14 t14 -34t-14 -34t-34 -14t-34 14t-14 34zM320 16q0 20 14 34t34 14t34 -14t14 -34t-14 -34t-34 -14t-34 14t-14 34z" />
<glyph unicode="&#xe0c5;" d="M489 382.5q-13 3.5 -24.5 -2.5t-15.5 -19l-2 -9h-299l-4 36q-2 12 -11 20t-21 8h-80q-13 0 -22.5 -9.5t-9.5 -22.5t9.5 -22.5t22.5 -9.5h52l28 -228q2 -12 11 -20t21 -8h272q11 0 19.5 6.5t11.5 16.5l64 224q3 13 -3 24.5t-19 15zM392 160h-220v4h221zM395 172h-224l-1 8 h228zM400 188h-231l-1 8h234zM404 204h-237l-1 8h241zM409 220h-244l-1 8h247zM414 236h-251l-1 8h254zM418 252h-257l-1 8h260zM423 268h-264l-1 8h267zM427 284h-270l-1 8h274zM432 300h-277l-1 8h280zM153 316l-1 4h286l-2 -4h-283zM128 16q0 20 14 34t34 14t34 -14 t14 -34t-14 -34t-34 -14t-34 14t-14 34zM320 16q0 20 14 34t34 14t34 -14t14 -34t-14 -34t-34 -14t-34 14t-14 34z" />
<glyph unicode="&#xe0c6;" d="M489 382.5q-13 3.5 -24.5 -2.5t-15.5 -19l-2 -9h-299l-4 36q-2 12 -11 20t-21 8h-80q-13 0 -22.5 -9.5t-9.5 -22.5t9.5 -22.5t22.5 -9.5h52l28 -228q2 -12 11 -20t21 -8h272q11 0 19.5 6.5t11.5 16.5l64 224q3 13 -3 24.5t-19 15zM256 224v32h64v-32h-64zM320 192v-32 h-64v32h64zM256 288v32h64v-32h-64zM152 320h72v-32h-68zM160 256h64v-32h-60zM168 192h56v-32h-52zM392 160h-40v32h49zM410 224h-58v32h67zM428 288h-76v32h86zM128 16q0 20 14 34t34 14t34 -14t14 -34t-14 -34t-34 -14t-34 14t-14 34zM320 16q0 20 14 34t34 14t34 -14 t14 -34t-14 -34t-34 -14t-34 14t-14 34z" />
<glyph unicode="&#xe0c7;" d="M489 382.5q-13 3.5 -24.5 -2.5t-15.5 -19l-2 -9h-299l-4 36q-2 12 -11 20t-21 8h-80q-13 0 -22.5 -9.5t-9.5 -22.5t9.5 -22.5t22.5 -9.5h52l28 -228q2 -12 11 -20t21 -8h272q11 0 19.5 6.5t11.5 16.5l64 224q3 13 -3 24.5t-19 15zM438 320l-10 -32h-272l-4 32h286z M419 256l-9 -32h-246l-4 32h259zM172 160l-4 32h233l-9 -32h-220zM128 16q0 20 14 34t34 14t34 -14t14 -34t-14 -34t-34 -14t-34 14t-14 34zM320 16q0 20 14 34t34 14t34 -14t14 -34t-14 -34t-34 -14t-34 14t-14 34z" />
<glyph unicode="&#xe0c8;" d="M416 96h-272q-12 0 -21 8t-11 20l-28 228h-52q-13 0 -22.5 9.5t-9.5 22.5t9.5 22.5t22.5 9.5h80q12 0 21 -8t11 -20l28 -228h220l57 201q4 13 15.5 19t24.5 2.5t19 -15t3 -24.5l-64 -224q-3 -10 -11.5 -16.5t-19.5 -6.5zM128 16q0 20 14 34t34 14t34 -14t14 -34t-14 -34 t-34 -14t-34 14t-14 34zM320 16q0 20 14 34t34 14t34 -14t14 -34t-14 -34t-34 -14t-34 14t-14 34zM384 256h-64v-64h-64v64h-64v64h64v64h64v-64h64v-64z" />
<glyph unicode="&#xe0c9;" d="M416 96h-272q-12 0 -21 8t-11 20l-28 228h-52q-13 0 -22.5 9.5t-9.5 22.5t9.5 22.5t22.5 9.5h80q12 0 21 -8t11 -20l28 -228h220l57 201q4 13 15.5 19t24.5 2.5t19 -15t3 -24.5l-64 -224q-3 -10 -11.5 -16.5t-19.5 -6.5zM128 16q0 20 14 34t34 14t34 -14t14 -34t-14 -34 t-34 -14t-34 14t-14 34zM320 16q0 20 14 34t34 14t34 -14t14 -34t-14 -34t-34 -14t-34 14t-14 34zM192 320h192v-64h-192v64z" />
<glyph unicode="&#xe0ca;" d="M489 382.5q13 -3.5 19 -15t3 -24.5l-64 -224q-3 -10 -11.5 -16.5t-19.5 -6.5h-272q-12 0 -21 8t-11 20l-28 228h-52q-13 0 -22.5 9.5t-9.5 22.5t9.5 22.5t22.5 9.5h80q12 0 21 -8t11 -20l28 -228h220l57 201q4 13 15.5 19t24.5 2.5zM128 16q0 20 14 34t34 14t34 -14 t14 -34t-14 -34t-34 -14t-34 14t-14 34zM320 16q0 20 14 34t34 14t34 -14t14 -34t-14 -34t-34 -14t-34 14t-14 34zM182 320h74v96h64v-96h74l-106 -114z" />
<glyph unicode="&#xe0cb;" d="M489 382.5q13 -3.5 19 -15t3 -24.5l-64 -224q-3 -10 -11.5 -16.5t-19.5 -6.5h-272q-12 0 -21 8t-11 20l-28 228h-52q-13 0 -22.5 9.5t-9.5 22.5t9.5 22.5t22.5 9.5h80q12 0 21 -8t11 -20l28 -228h220l57 201q4 13 15.5 19t24.5 2.5zM128 16q0 20 14 34t34 14t34 -14 t14 -34t-14 -34t-34 -14t-34 14t-14 34zM320 16q0 20 14 34t34 14t34 -14t14 -34t-14 -34t-34 -14t-34 14t-14 34zM394 288h-74v-96h-64v96h-74l106 114z" />
<glyph unicode="&#xe0cc;" d="M416 96h-272q-12 0 -21 8t-11 20l-28 228h-52q-13 0 -22.5 9.5t-9.5 22.5t9.5 22.5t22.5 9.5h80q12 0 21 -8t11 -20l28 -228h220l57 201q4 13 15.5 19t24.5 2.5t19 -15t3 -24.5l-64 -224q-3 -10 -11.5 -16.5t-19.5 -6.5zM128 16q0 20 14 34t34 14t34 -14t14 -34t-14 -34 t-34 -14t-34 14t-14 34zM320 16q0 20 14 34t34 14t34 -14t14 -34t-14 -34t-34 -14t-34 14t-14 34zM429 403l-134 -178l-80 103l27 25l51 -46l114 115z" />
<glyph unicode="&#xe0cd;" d="M489 382.5q13 -3.5 19 -15t3 -24.5l-64 -224q-3 -10 -11.5 -16.5t-19.5 -6.5h-272q-12 0 -21 8t-11 20l-28 228h-52q-13 0 -22.5 9.5t-9.5 22.5t9.5 22.5t22.5 9.5h80q12 0 21 -8t11 -20l28 -228h220l57 201q4 13 15.5 19t24.5 2.5zM128 16q0 20 14 34t34 14t34 -14 t14 -34t-14 -34t-34 -14t-34 14t-14 34zM320 16q0 20 14 34t34 14t34 -14t14 -34t-14 -34t-34 -14t-34 14t-14 34zM403 251l-46 -46l-69 70l-69 -70l-46 46l70 69l-70 69l46 46l69 -70l69 70l46 -46l-70 -69z" />
<glyph unicode="&#xe0ce;" d="M406 288l-88 116q2 6 2 12q0 13 -9.5 22.5t-22.5 9.5t-22.5 -9.5t-9.5 -22.5t9.5 -22.5t22.5 -9.5h4l74 -96h-220l74 96h4q13 0 22.5 9.5t9.5 22.5t-9.5 22.5t-22.5 9.5t-22.5 -9.5t-9.5 -22.5q0 -6 2 -12l-88 -116h-106v-64h32l32 -256h384l32 256h32v64h-106zM160 32 h-64v64h64v-64zM160 160h-64v64h64v-64zM288 32h-64v64h64v-64zM288 160h-64v64h64v-64zM416 32h-64v64h64v-64zM416 160h-64v64h64v-64z" />
<glyph unicode="&#xe0cf;" d="M64 -32h383q4 7 10.5 23t23 82t30.5 151h-511q14 -85 30 -149t25 -85zM368 192h48v-192h-48v192zM277 192h48v-192h-48v192zM187 192h48v-192h-48v192zM96 192h48v-192h-48v192zM438 320l-90 112q4 8 4 16q0 13 -9.5 22.5t-22.5 9.5t-22.5 -9.5t-9.5 -22.5t9.5 -22.5 t22.5 -9.5q5 0 9 1l78 -97h-302l78 97q4 -1 9 -1q13 0 22.5 9.5t9.5 22.5t-9.5 22.5t-22.5 9.5t-22.5 -9.5t-9.5 -22.5q0 -8 4 -16l-90 -112h-74v-64h512v64h-74z" />
<glyph unicode="&#xe0d0;" d="M352 384v16q0 33 -23.5 56.5t-56.5 23.5q-27 0 -48 -16q-21 16 -48 16q-33 0 -56.5 -23.5t-23.5 -56.5v-54l-64 -10v-336h64l32 -32l320 48v336zM96 32h-32v276l32 5v-281zM272 448q20 0 34 -14t14 -34v-21l-64 -9v30q0 21 -11 40q12 8 27 8zM128 400q0 20 14 34t34 14 q15 0 27 -8q-11 -19 -11 -40v-40l-64 -10v50zM416 44l-256 -39v271l256 39v-271z" />
<glyph unicode="&#xe0d1;" d="M352 384v16q0 33 -23.5 56.5t-56.5 23.5q-27 0 -48 -16q-21 16 -48 16q-33 0 -56.5 -23.5t-23.5 -56.5v-54l-64 -10v-336h64l32 -32l320 48v336zM64 60v8h32v-8h-32zM96 52v-8h-32v8h32zM64 76v8h32v-8h-32zM64 92v8h32v-8h-32zM64 108v8h32v-8h-32zM64 124v8h32v-8h-32z M64 140v8h32v-8h-32zM64 156v8h32v-8h-32zM64 172v8h32v-8h-32zM64 188v8h32v-8h-32zM64 204v8h32v-8h-32zM64 220v8h32v-8h-32zM64 236v8h32v-8h-32zM64 252v8h32v-8h-32zM64 268v8h32v-8h-32zM64 284v8h32v-8h-32zM64 300v8h32v-8h-32zM64 32v4h32v-4h-32zM380 309l8 2 v-272l-8 -1v271zM372 37l-8 -1v271l8 1v-271zM396 312l8 1v-271l-8 -1v271zM356 306v-271l-8 -2v272zM252 290l8 1v-271l-8 -1v271zM244 18l-8 -1v271l8 1v-271zM268 293l8 1v-271l-8 -2v272zM284 295l8 1v-271l-8 -1v271zM300 297l8 2v-272l-8 -1v271zM316 300l8 1v-271 l-8 -1v271zM332 302l8 1v-271l-8 -1v271zM272 448q20 0 34 -14t14 -34v-21l-64 -9v30q0 21 -11 40q12 8 27 8zM228 287v-272l-8 -1v271zM180 279v-271l-8 -1v271zM188 281l8 1v-271l-8 -2v272zM204 283l8 1v-271l-8 -1v271zM128 400q0 20 14 34t34 14q15 0 27 -8 q-11 -19 -11 -40v-40l-64 -10v50zM160 276l4 1v-271l-4 -1v271zM416 44l-4 -1v271l4 1v-271z" />
<glyph unicode="&#xe0d2;" d="M432 320h-80q0 66 -28 113t-68 47t-68 -47t-28 -113h-80q-7 0 -11.5 -4.5t-4.5 -11.5v-320q0 -7 4.5 -11.5t11.5 -4.5h352q7 0 11.5 4.5t4.5 11.5v320q0 7 -4.5 11.5t-11.5 4.5zM256 448q27 0 45.5 -37.5t18.5 -90.5h-128q0 53 18.5 90.5t45.5 37.5z" />
<glyph unicode="&#xe0d3;" d="M240 448q-99 0 -169.5 -70.5t-70.5 -169.5t70.5 -169.5t169.5 -70.5t169.5 70.5t70.5 169.5t-70.5 169.5t-169.5 70.5zM240 16q-80 0 -136 56t-56 136t56 136t136 56t136 -56t56 -136t-56 -136t-136 -56zM256 224v64h64v32h-64v32h-32v-32h-64v-128h64v-64h-64v-32h64 v-32h32v32h64v128h-64zM224 224h-32v64h32v-64zM288 128h-32v64h32v-64z" />
<glyph unicode="&#xe0d4;" d="M335 321q-17 0 -34 -3l-2 2q21 15 21 32v32q0 27 -47 45.5t-113 18.5t-113 -18.5t-47 -45.5v-32q0 -17 21 -32q-21 -15 -21 -32v-32q0 -17 21 -32q-21 -15 -21 -32v-32q0 -17 21 -32q-21 -15 -21 -32v-32q0 -27 47 -45.5t113 -18.5q35 0 66 6q48 -38 109 -38 q74 0 125.5 51.5t51.5 125t-51.5 125t-125.5 51.5zM16 384q0 16 37 30q44 18 107 18t107 -18q37 -14 37 -30t-37 -30q-14 -6 -30 -10q-35 -8 -77 -8t-77 8q-16 4 -30 10q-37 14 -37 30zM16 192q0 11 21 23q48 -23 123 -23h5q-6 -23 -6 -47v-1q-41 0 -76 8q-16 4 -30 10 q-37 14 -37 30zM160 48q-63 0 -107 18q-37 14 -37 30q0 11 21 23q48 -23 123 -23h5q8 -25 22 -47q-14 -1 -27 -1zM160 240q-42 0 -77 8q-16 4 -30 10q-37 14 -37 30q0 11 21 23q48 -23 123 -23q49 0 89 11q-38 -21 -62 -58q-13 -1 -27 -1zM335 0q-60 0 -102 42.5t-42 102.5 t42 102t102 42t102.5 -42t42.5 -102t-42.5 -102.5t-102.5 -42.5zM352 256h-32v-32h-64v-96h64v-32h-64v-32h64v-32h32v32h64v96h-64v32h64v32h-64v32zM320 160h-32v32h32v-32zM384 128v-32h-32v32h32z" />
<glyph unicode="&#xe0d5;" d="M464 416h-416q-20 0 -34 -14t-14 -34v-288q0 -20 14 -34t34 -14h416q20 0 34 14t14 34v288q0 20 -14 34t-34 14zM48 384h416q7 0 11.5 -4.5t4.5 -11.5v-48h-448v48q0 7 4.5 11.5t11.5 4.5zM464 64h-416q-7 0 -11.5 4.5t-4.5 11.5v144h448v-144q0 -7 -4.5 -11.5 t-11.5 -4.5zM64 160h32v-64h-32v64zM128 160h32v-64h-32v64zM192 160h32v-64h-32v64z" />
<glyph unicode="&#xe0d6;" d="M464 416h-416q-20 0 -34 -14t-14 -34v-288q0 -20 14 -34t34 -14h416q20 0 34 14t14 34v288q0 20 -14 34t-34 14zM96 96h-32v64h32v-64zM160 96h-32v64h32v-64zM224 96h-32v64h32v-64zM496 224h-480v96h480v-96z" />
<glyph unicode="&#xe0d7;" d="M384 480h-256q-13 0 -22.5 -9.5t-9.5 -22.5v-448q0 -13 9.5 -22.5t22.5 -9.5h256q13 0 22.5 9.5t9.5 22.5v448q0 13 -9.5 22.5t-22.5 9.5zM192 0h-64v64h64v-64zM192 96h-64v64h64v-64zM192 192h-64v64h64v-64zM288 0h-64v64h64v-64zM288 96h-64v64h64v-64zM288 192h-64 v64h64v-64zM384 0h-64v64h64v-64zM384 96h-64v64h64v-64zM384 192h-64v64h64v-64zM384 288h-256v160h256v-160z" />
<glyph unicode="&#xe0d8;" d="M192 448h-160q-13 0 -22.5 -9.5t-9.5 -22.5v-160q0 -13 9.5 -22.5t22.5 -9.5h160q13 0 22.5 9.5t9.5 22.5v160q0 13 -9.5 22.5t-22.5 9.5zM192 320h-160v32h160v-32zM448 448h-160q-13 0 -22.5 -9.5t-9.5 -22.5v-416q0 -13 9.5 -22.5t22.5 -9.5h160q13 0 22.5 9.5 t9.5 22.5v416q0 13 -9.5 22.5t-22.5 9.5zM448 160h-160v32h160v-32zM448 256h-160v32h160v-32zM192 192h-160q-13 0 -22.5 -9.5t-9.5 -22.5v-160q0 -13 9.5 -22.5t22.5 -9.5h160q13 0 22.5 9.5t9.5 22.5v160q0 13 -9.5 22.5t-22.5 9.5zM192 64h-64v-64h-32v64h-64v32h64v64 h32v-64h64v-32z" />
<glyph unicode="&#xe0d9;" d="M256 480q-106 0 -181 -75t-75 -181t75 -181t181 -75t181 75t75 181t-75 181t-181 75zM160 224q0 40 28 68t68 28t68 -28t28 -68t-28 -68t-68 -28t-68 28t-28 68zM463 138l-89 37q10 23 10 49t-10 49l61 25l28 12q17 -41 17 -86t-17 -86zM342 431v0l-37 -89q-23 10 -49 10 t-49 -10l-17 42l-20 47q41 17 86 17t86 -17zM49 310l47 -20l42 -17q-10 -23 -10 -49t10 -49l-89 -37q-17 41 -17 86t17 86zM170 17l12 28l25 61q23 -10 49 -10t49 10l37 -89v0q-41 -17 -86 -17t-86 17z" />
<glyph unicode="&#xe0da;" d="M457 376q19 -10 31 -22t16.5 -24t6 -20t1.5 -19v-3q0 -10 -10 -10h-120q-10 0 -10 10v11q0 29 -42 36q-30 4 -74 4v0q-44 0 -74 -4q-42 -7 -42 -36v-11q0 -10 -10 -10h-120q-10 0 -10 10v3q0 11 1.5 19t6 20t16.5 24t31 22q70 40 201 40v0q131 0 201 -40zM256 288 q-86 0 -117 -39q-27 -32 -52 -108q-34 -105 10 -109h3h156h156q46 0 15 103q-25 77 -54 114q-31 39 -117 39zM256 96q-27 0 -45.5 18.5t-18.5 45.5t18.5 45.5t45.5 18.5t45.5 -18.5t18.5 -45.5t-18.5 -45.5t-45.5 -18.5z" />
<glyph unicode="&#xe0db;" d="M322 109q-12 -7 -33 4q-42 33 -81 72q-30 37 -56 79l-1 3q-9 22 -1 33t18 20l-87 130q-20 -14 -41 -44q-22 -32 -26 -53q40 -145 121 -231v-1q76 -94 225 -153q22 2 56 20q32 18 48 36l-120 101q-11 -10 -22 -16zM206 351q10 8 2 21l-67 102q-8 9 -21 5l-28 -18l88 -130z M493 82l-95 77q-11 9 -20 0l-23 -23l120 -101l21 25q6 13 -3 22z" />
<glyph unicode="&#xe0dc;" d="M352 160q-12 -12 -22.5 -29.5t-19 -26t-22.5 -8.5q-15 0 -33 10.5t-30 21.5t-33 32t-32 33t-21.5 30t-10.5 33q0 14 8.5 22.5t26 19t29.5 22.5q22 22 -23.5 75t-72.5 53q-14 0 -38 -24t-41 -48l-17 -24q0 -48 40.5 -128.5t87.5 -127.5t127.5 -87.5t128.5 -40.5 q11 7 27 18.5t42.5 37.5t26.5 40q0 27 -53 72.5t-75 23.5z" />
<glyph unicode="&#xe0dd;" d="M352 160q22 22 75 -23.5t53 -72.5q0 -14 -24 -38t-48 -41l-24 -17q-48 0 -128.5 40.5t-127.5 87.5t-87.5 127.5t-40.5 128.5q7 11 18.5 27t37.5 42.5t40 26.5q27 0 72.5 -53t23.5 -75q-12 -12 -29.5 -22.5t-26 -19t-8.5 -22.5q0 -15 10.5 -33t21.5 -30t32 -33t33 -32 t30 -21.5t33 -10.5q14 0 22.5 8.5t19 26t22.5 29.5zM320 352q-35 0 -54 -29q13 5 26 5q28 0 48 -20t20 -48q0 -13 -5 -26q29 19 29 54q0 27 -18.5 45.5t-45.5 18.5zM336 416q-51 0 -85 -39q27 15 57 15q48 0 82 -34t34 -82q0 -30 -15 -57q39 34 39 85q0 46 -33 79t-79 33z M368 480q-62 0 -105 -46q35 22 77 22q61 0 104.5 -43.5t43.5 -104.5q0 -42 -22 -77q46 42 46 105q0 60 -42 102t-102 42z" />
<glyph unicode="&#xe0de;" d="M352 160q22 22 75 -23.5t53 -72.5q0 -14 -24 -38t-48 -41l-24 -17q-48 0 -128.5 40.5t-127.5 87.5t-87.5 127.5t-40.5 128.5q7 11 18.5 27t37.5 42.5t40 26.5q27 0 72.5 -53t23.5 -75q-12 -12 -29.5 -22.5t-26 -19t-8.5 -22.5q0 -15 10.5 -33t21.5 -30t32 -33t33 -32 t30 -21.5t33 -10.5q14 0 22.5 8.5t19 26t22.5 29.5zM368 480q-60 0 -102 -42t-42 -102t42 -102t102 -42t102 42t42 102t-42 102t-102 42zM384 320v-64h-32v64h-64v32h64v64h32v-64h64v-32h-64z" />
<glyph unicode="&#xe0df;" d="M352 160q22 22 75 -23.5t53 -72.5q0 -14 -24 -38t-48 -41l-24 -17q-48 0 -128.5 40.5t-127.5 87.5t-87.5 127.5t-40.5 128.5q7 11 18.5 27t37.5 42.5t40 26.5q27 0 72.5 -53t23.5 -75q-12 -12 -29.5 -22.5t-26 -19t-8.5 -22.5q0 -15 10.5 -33t21.5 -30t32 -33t33 -32 t30 -21.5t33 -10.5q14 0 22.5 8.5t19 26t22.5 29.5zM368 480q-60 0 -102 -42t-42 -102t42 -102t102 -42t102 42t42 102t-42 102t-102 42zM448 320h-160v32h160v-32z" />
<glyph unicode="&#xe0e0;" d="M352 160q22 22 75 -23.5t53 -72.5q0 -14 -24 -38t-48 -41l-24 -17q-48 0 -128.5 40.5t-127.5 87.5t-87.5 127.5t-40.5 128.5q7 11 18.5 27t37.5 42.5t40 26.5q27 0 72.5 -53t23.5 -75q-12 -12 -29.5 -22.5t-26 -19t-8.5 -22.5q0 -15 10.5 -33t21.5 -30t32 -33t33 -32 t30 -21.5t33 -10.5q14 0 22.5 8.5t19 26t22.5 29.5zM480 320h-64v-64h-64v64h-64v64h64v64h64v-64h64v-64z" />
<glyph unicode="&#xe0e1;" d="M352 160q22 22 75 -23.5t53 -72.5q0 -14 -24 -38t-48 -41l-24 -17q-48 0 -128.5 40.5t-127.5 87.5t-87.5 127.5t-40.5 128.5q7 11 18.5 27t37.5 42.5t40 26.5q27 0 72.5 -53t23.5 -75q-12 -12 -29.5 -22.5t-26 -19t-8.5 -22.5q0 -15 10.5 -33t21.5 -30t32 -33t33 -32 t30 -21.5t33 -10.5q14 0 22.5 8.5t19 26t22.5 29.5zM288 384h192v-64h-192v64zM288 384h192v-64h-192v64z" />
<glyph unicode="&#xe0e2;" d="M352 160q22 22 75 -23.5t53 -72.5q0 -14 -24 -38t-48 -41l-24 -17q-48 0 -128.5 40.5t-127.5 87.5t-87.5 127.5t-40.5 128.5q7 11 18.5 27t37.5 42.5t40 26.5q27 0 72.5 -53t23.5 -75q-12 -12 -29.5 -22.5t-26 -19t-8.5 -22.5q0 -15 10.5 -33t21.5 -30t32 -33t33 -32 t30 -21.5t33 -10.5q14 0 22.5 8.5t19 26t22.5 29.5zM256 224v176l65 -65l82 81h45v-45l-81 -82l65 -65h-176z" />
<glyph unicode="&#xe0e3;" d="M352 160q22 22 75 -23.5t53 -72.5q0 -14 -24 -38t-48 -41l-24 -17q-48 0 -128.5 40.5t-127.5 87.5t-87.5 127.5t-40.5 128.5q7 11 18.5 27t37.5 42.5t40 26.5q27 0 72.5 -53t23.5 -75q-12 -12 -29.5 -22.5t-26 -19t-8.5 -22.5q0 -15 10.5 -33t21.5 -30t32 -33t33 -32 t30 -21.5t33 -10.5q14 0 22.5 8.5t19 26t22.5 29.5zM448 416v-176l-65 65l-82 -81h-45v45l81 82l-65 65h176z" />
<glyph unicode="&#xe0e4;" d="M404 -32h-6q-52 0 -136 42q-82 41 -130.5 89.5t-89.5 130.5q-42 84 -42 136v6l3 5q17 24 37 49q45 54 74 54q26 0 65 -36q36 -33 50 -67q15 -36 -6 -57q-14 -14 -38 -29q-13 -8 -16 -11t-3 -9q0 -11 9.5 -26t19 -25t28.5 -29t29 -28.5t25 -19t26 -9.5q6 0 9 3t11 16 q15 24 29 38q12 12 31 12t44 -15q19 -12 39 -31q46 -44 46 -75q0 -29 -54 -74q-25 -20 -49 -37zM40 360q3 -43 38 -112q38 -76 82 -120t120 -82q69 -35 112 -38q21 15 38 29q38 32 42 46q-3 16 -35 47q-35 33 -54 33h-3q-10 -11 -23 -31q-7 -12 -12 -18.5t-16.5 -13 t-25.5 -6.5q-18 0 -39 11.5t-34 23t-35.5 34t-34 35.5t-23 34t-11.5 39q0 14 6.5 25.5t13 16.5t18.5 12q20 13 31 23q2 2 -2 12q-8 24 -39 52q-26 26 -39 28q-14 -4 -46 -42q-14 -18 -29 -38z" />
<glyph unicode="&#xe0e5;" d="M404 -32h-6q-52 0 -136 42q-82 41 -130.5 89.5t-89.5 130.5q-42 84 -42 136v6l3 5q17 24 37 49q45 54 74 54q26 0 65 -36q36 -33 50 -67q15 -36 -6 -57q-14 -14 -38 -29q-13 -8 -16 -11t-3 -9q0 -11 9.5 -26t19 -25t28.5 -29t29 -28.5t25 -19t26 -9.5q6 0 9 3t11 16 q15 24 29 38q12 12 31 12t44 -15q19 -12 39 -31q46 -44 46 -75q0 -29 -54 -74q-25 -20 -49 -37zM40 360q3 -43 38 -112q38 -76 82 -120t120 -82q69 -35 112 -38q21 15 38 29q38 32 42 46q-3 16 -35 47q-35 33 -54 33h-3q-10 -11 -23 -31q-7 -12 -12 -18.5t-16.5 -13 t-25.5 -6.5q-18 0 -39 11.5t-34 23t-35.5 34t-34 35.5t-23 34t-11.5 39q0 14 6.5 25.5t13 16.5t18.5 12q20 13 31 23q2 2 -2 12q-8 24 -39 52q-26 26 -39 28q-14 -4 -46 -42q-14 -18 -29 -38zM320 352q-35 0 -54 -29q13 5 26 5q28 0 48 -20t20 -48q0 -13 -5 -26q29 19 29 54 q0 27 -18.5 45.5t-45.5 18.5zM336 416q-51 0 -85 -39q27 15 57 15q48 0 82 -34t34 -82q0 -30 -15 -57q39 34 39 85q0 46 -33 79t-79 33zM368 480q-62 0 -105 -46q35 22 77 22q61 0 104.5 -43.5t43.5 -104.5q0 -42 -22 -77q46 42 46 105q0 60 -42 102t-102 42z" />
<glyph unicode="&#xe0e6;" d="M509 192q9 -63 -6 -80q-11 -12 -47.5 -15.5t-70 7t-33.5 32.5q0 7 3 16.5t5.5 15.5t1 15t-8.5 17q-14 16 -36 20t-61 4q-26 0 -40 -1t-30.5 -6.5t-26.5 -16.5q-7 -8 -8.5 -17t1 -15t5.5 -15.5t3 -16.5q0 -22 -33.5 -32.5t-70 -7t-47.5 15.5q-15 17 -6 80q6 33 36 64 q68 63 215 64h1h1h1h1q147 -1 215 -64q30 -31 36 -64z" />
<glyph unicode="&#xe0e7;" d="M424 91q57 0 75 21q12 14 13 44q0 19 -3 44v1q-6 36 -39 68v1q-64 58 -193 62v1h-19h-2h-2h-19v-1q-129 -4 -193 -62v-1q-33 -32 -39 -68v-1q-3 -25 -3 -44q1 -30 13 -44q18 -21 75 -21q35 0 61 10q37 15 37 45q0 11 -6 28q-4 12 1 18q9 10 26.5 12.5t48.5 2.5 q21 0 32 -0.5t24 -4t19 -10.5q5 -6 1 -18q-6 -17 -6 -28q0 -30 37 -45q26 -10 61 -10zM256 245q-26 0 -40 -0.5t-33 -7.5t-31 -20q-20 -22 -8 -56q4 -10 4 -15q0 -3 -6.5 -7t-21 -7t-32.5 -3q-36 0 -46 8q-8 11 -1 57q4 24 27 48q58 52 186 53h2v0h2q128 -1 186 -53 q23 -24 27 -48q7 -46 -1 -57q-10 -8 -46 -8q-18 0 -32.5 3t-21 7t-6.5 7q0 5 4 15q12 34 -8 56q-12 13 -31 20t-33 7.5t-40 0.5z" />
<glyph unicode="&#xe0e8;" d="M32 256h48v-80h-48v80zM32 352h48v-80h-48v80zM32 160h48v-80h-48v80zM32 64h48v-80h-48v80zM96 480v-512h384v512h-384zM288 352q26 0 45 -19t19 -45t-19 -45t-45 -19t-45 19t-19 45t19 45t45 19zM384 96h-192v32q0 27 18.5 45.5t45.5 18.5h64q27 0 45.5 -18.5 t18.5 -45.5v-32zM32 448h48v-80h-48v80z" />
<glyph unicode="&#xe0e9;" d="M480 352q13 0 22.5 9.5t9.5 22.5v64h-64v32h-416q-13 0 -22.5 -9.5t-9.5 -22.5v-448q0 -13 9.5 -22.5t22.5 -9.5h416v128h32q13 0 22.5 9.5t9.5 22.5v64h-64v32h32q13 0 22.5 9.5t9.5 22.5v64h-64v32h32zM288 352q26 0 45 -19t19 -45t-19 -45t-45 -19t-45 19t-19 45 t19 45t45 19zM128 0h-32v448h32v-448zM384 96h-192v32q0 27 18.5 45.5t45.5 18.5h64q27 0 45.5 -18.5t18.5 -45.5v-32z" />
<glyph unicode="&#xe0ea;" d="M449 448h-385v-64h-47q-7 0 -12 -4.5t-5 -10.5v-32q0 -7 5.5 -12t11.5 -5h47v-32h-47q-7 0 -12 -4.5t-5 -10.5v-32q0 -7 5.5 -12t11.5 -5h47v-32h-47q-7 0 -12 -4.5t-5 -10.5v-32q0 -7 5.5 -12t11.5 -5h47v-32h-47q-7 0 -12 -4.5t-5 -10.5v-32q0 -7 5.5 -12t11.5 -5h47 v-64h385q13 0 22 9.5t9 23.5v416q0 13 -9 22t-22 9zM160 0h-64v32h17q7 0 11 5t4 12v32q0 7 -4 11t-11 4h-17v32h17q7 0 11 5t4 12v32q0 15 -15 15h-17v32h17q7 0 11 5t4 12v32q0 15 -15 15h-17v32h17q7 0 11 5t4 12v32q0 15 -15 15h-17v32h64v-416z" />
<glyph unicode="&#xe0eb;" d="M480 416h-448q-13 0 -22.5 -9.5t-9.5 -22.5v-320q0 -13 9.5 -22.5t22.5 -9.5h448q13 0 22.5 9.5t9.5 22.5v320q0 13 -9.5 22.5t-22.5 9.5zM448 352v-23l-192 -113l-192 113v23h384zM64 96v177l192 -113l192 113v-177h-384z" />
<glyph unicode="&#xe0ec;" d="M326 215l186 -129v296zM0 382v-296l186 129zM256 152l-45 40l-211 -128h512l-212 128zM497 384h-482l241 -181z" />
<glyph unicode="&#xe0ed;" horiz-adv-x="640" d="M608 352h-416l208 -166zM400 134l-26 21l-172 -91h395l-171 91zM460 183l180 -96v239zM160 326v-239l180 96zM128 288l-128 8v16l128 8v-32zM128 192l-128 8v16l128 8v-32zM128 96l-128 8v16l128 8v-32z" />
<glyph unicode="&#xe0ee;" d="M326 119l186 -129v296zM0 286v-296l186 129zM256 56l-45 40l-211 -128h512l-212 128zM15 288h482l-241 181z" />
<glyph unicode="&#xe0ef;" d="M464 416h-416q-20 0 -34 -14t-14 -34v-320q0 -20 14 -34t34 -14h416q20 0 34 14t14 34v320q0 20 -14 34t-34 14zM199 205l-135 -106v251zM88 352h336l-168 -126zM205 199l51 -55l51 55l106 -135h-314zM313 205l135 145v-251z" />
<glyph unicode="&#xe0f0;" d="M272 480l-48 -48l48 -48l-112 -128h-112l88 -88l-136 -180v-20h20l180 136l88 -88v112l128 112l48 -48l48 48zM224 208l-32 32l112 112l32 -32z" />
<glyph unicode="&#xe0f1;" d="M256 480q-66 0 -113 -47t-47 -113q0 -45 16.5 -97.5t40 -96t47 -80.5t40.5 -58l16 -20q7 8 17.5 22t38 55.5t48.5 82t38.5 94t17.5 98.5q0 66 -47 113t-113 47zM256 224q-40 0 -68 28t-28 68t28 68t68 28t68 -28t28 -68t-28 -68t-68 -28z" />
<glyph unicode="&#xe0f2;" d="M256 480q-66 0 -113 -47t-47 -113q0 -45 16.5 -91t40 -80t47 -61.5t40.5 -41.5l16 -14q7 5 17.5 14.5t38 40.5t48.5 63t38.5 78.5t17.5 91.5q0 66 -47 113t-113 47zM256 224q-40 0 -68 28t-28 68t28 68t68 28t68 -28t28 -68t-28 -68t-68 -28zM393 131q-10 -16 -22 -31 l4 -2q17 -9 26 -18t9 -16t-9 -16t-26 -18q-48 -24 -119 -24t-119 24q-17 9 -26 18t-9 16t9 16t26 18l4 2q-12 15 -22 31q-55 -28 -55 -67q0 -40 56 -68t136 -28t136 28t56 68q0 39 -55 67z" />
<glyph unicode="&#xe0f3;" d="M256 480q-66 0 -113 -47t-47 -113q0 -45 16.5 -97.5t40 -96t47 -80.5t40.5 -58l16 -20q7 8 17.5 22t38 55.5t48.5 82t38.5 94t17.5 98.5q0 66 -47 113t-113 47zM256 222q-41 0 -69.5 28.5t-28.5 69.5t28.5 69.5t69.5 28.5t69.5 -28.5t28.5 -69.5t-28.5 -69.5t-69.5 -28.5 zM194 320q0 26 18 44t44 18t44 -18t18 -44t-18 -44t-44 -18t-44 18t-18 44z" />
<glyph unicode="&#xe0f4;" d="M256 480q-66 0 -113 -47t-47 -113q0 -45 16.5 -91t40 -80t47 -61.5t40.5 -41.5l16 -14q7 5 17.5 14.5t38 40.5t48.5 63t38.5 78.5t17.5 91.5q0 66 -47 113t-113 47zM256 222q-41 0 -69.5 28.5t-28.5 69.5t28.5 69.5t69.5 28.5t69.5 -28.5t28.5 -69.5t-28.5 -69.5 t-69.5 -28.5zM194 320q0 -26 18 -44t44 -18t44 18t18 44t-18 44t-44 18t-44 -18t-18 -44zM393 131q-10 -16 -22 -31l4 -2q17 -9 26 -18t9 -16t-9 -16t-26 -18q-48 -24 -119 -24t-119 24q-17 9 -26 18t-9 16t9 16t26 18l4 2q-12 15 -22 31q-55 -28 -55 -67q0 -40 56 -68 t136 -28t136 28t56 68q0 39 -55 67z" />
<glyph unicode="&#xe0f5;" d="M256 480q-80 0 -136 -56t-56 -136q0 -54 20 -106.5t48 -89.5t56 -66t48 -44l20 -14q8 5 21 15t46 42.5t58 67t46 88t21 107.5q0 80 -56 136t-136 56zM256 256q-27 0 -45.5 18.5t-18.5 45.5t18.5 45.5t45.5 18.5t45.5 -18.5t18.5 -45.5t-18.5 -45.5t-45.5 -18.5z" />
<glyph unicode="&#xe0f6;" d="M256 480q-80 0 -136 -56t-56 -136q0 -54 20 -106.5t48 -89.5t56 -66t48 -44l20 -14q8 5 21 15t46 42.5t58 67t46 88t21 107.5q0 80 -56 136t-136 56zM323 84q-30 -36 -67 -66q-37 30 -67 66q-38 44 -59 91q-26 56 -26 113q0 63 44.5 107.5t107.5 44.5t107.5 -44.5 t44.5 -107.5q0 -57 -26 -113q-21 -47 -59 -91zM256 384q-27 0 -45.5 -18.5t-18.5 -45.5t18.5 -45.5t45.5 -18.5t45.5 18.5t18.5 45.5t-18.5 45.5t-45.5 18.5zM256 288q-13 0 -22.5 9.5t-9.5 22.5t9.5 22.5t22.5 9.5t22.5 -9.5t9.5 -22.5t-9.5 -22.5t-22.5 -9.5z" />
<glyph unicode="&#xe0f7;" d="M256 480q-66 0 -113 -44t-47 -106q0 -39 20 -78.5t44 -68t44 -77.5t20 -106v-16q0 -6 4.5 -11t10.5 -5h33q7 0 11.5 4.5t4.5 11.5v16q0 57 20 106t44 77.5t44 68t20 78.5q0 62 -47 106t-113 44z" />
<glyph unicode="&#xe0f8;" d="M240 448q-99 0 -169.5 -70.5t-70.5 -169.5t70.5 -169.5t169.5 -70.5t169.5 70.5t70.5 169.5t-70.5 169.5t-169.5 70.5zM240 16q-80 0 -136 56t-56 136t56 136t136 56t136 -56t56 -136t-56 -136t-136 -56zM416 215l-106 25l42 57v23h-23l-57 -42l-25 106h-14l-25 -106 l-57 42h-23v-23l42 -57l-106 -25v-14l106 -25l-42 -57v-23h23l57 42l25 -106h14l25 106l57 -42h23v23l-42 57l106 25v14zM256 204q0 -12 -12 -12h-8q-12 0 -12 12v8q0 12 12 12h8q12 0 12 -12v-8z" />
<glyph unicode="&#xe0f9;" d="M256 480q-106 0 -181 -75t-75 -181t75 -181t181 -75t181 75t75 181t-75 181t-181 75zM256 16q-86 0 -147 61t-61 147t61 147t147 61t147 -61t61 -147t-61 -147t-147 -61zM304 272l-144 80h-32v-32l80 -144l144 -80h32v32zM256 192q-13 0 -22.5 9.5t-9.5 22.5t9.5 22.5 t22.5 9.5t22.5 -9.5t9.5 -22.5t-9.5 -22.5t-22.5 -9.5z" />
<glyph unicode="&#xe0fa;" d="M384 400l-256 64l-128 -80v-416l128 80l256 -64l128 80v416zM352 25l-192 48v350l192 -48v-350z" />
<glyph unicode="&#xe0fb;" d="M384 400l-256 64l-128 -80v-416l128 80l256 -64l128 80v416zM160 73v350l4 -1v-350zM172 70v350l8 -2v-350zM188 66v350l8 -2v-350zM204 62v350l8 -2v-350zM220 58v350l8 -2v-350zM236 54v350l8 -2v-350zM252 50v350l8 -2v-350zM268 46v350l8 -2v-350zM284 42v350l8 -2 v-350zM300 38v350l8 -2v-350zM316 34v350l8 -2v-350zM332 30v350l8 -2v-350zM352 25l-4 1v350l4 -1v-350z" />
<glyph unicode="&#xe0fc;" d="M0 384l160 64v-384l-160 -64v384zM352 384v-384l-160 53v384zM512 448v-384l-128 -51v384z" />
<glyph unicode="&#xe0fd;" d="M336 384l-160 64l-176 -64v-384l176 64l160 -64l176 64v384zM192 407l128 -51v-315l-128 51v315zM32 362l128 46v-316l-128 -46v316zM480 86l-128 -46v316l128 46v-316z" />
<glyph unicode="&#xe0fe;" d="M400 288l96 64l-96 64h-112v40q0 10 -7 17t-17 7h-16q-10 0 -17 -7t-7 -17v-40h-160v-128h160v-32h-144l-64 -48l64 -48h144v-192h64v192h128v96h-128v32h112z" />
<glyph unicode="&#xe0ff;" d="M288 448q93 0 158.5 -65.5t65.5 -158.5t-65.5 -158.5t-158.5 -65.5v48q73 0 124.5 51.5t51.5 124.5t-51.5 124.5t-124.5 51.5t-124 -52q-39 -38 -49 -92h93l-112 -128l-112 128h82q12 82 75 137t147 55zM384 256v-64h-128v160h64v-96h64z" />
<glyph unicode="&#xe100;" d="M256 352v-160h128v32h-96v128h-32zM288 448q-93 0 -158.5 -65.5t-65.5 -158.5h-64l80 -96l80 96h-64q0 80 56 136t136 56t136 -56t56 -136t-56 -136t-136 -56q-16 0 -32 3v-33q16 -2 32 -2q93 0 158.5 65.5t65.5 158.5t-65.5 158.5t-158.5 65.5z" />
<glyph unicode="&#xe101;" d="M329 105l-105 106v141h64v-115l87 -86zM256 480q-106 0 -181 -75t-75 -181t75 -181t181 -75t181 75t75 181t-75 181t-181 75zM256 32q-80 0 -136 56t-56 136t56 136t136 56t136 -56t56 -136t-56 -136t-136 -56z" />
<glyph unicode="&#xe102;" d="M256 480q-106 0 -181 -75t-75 -181t75 -181t181 -75t181 75t75 181t-75 181t-181 75zM329 105l-105 106v141h64v-115l87 -86z" />
<glyph unicode="&#xe103;" d="M384 256v-64h-160v192h64v-128h96zM256 480q-106 0 -181 -75t-75 -181t75 -181t181 -75t181 75t75 181t-75 181t-181 75zM256 32q-80 0 -136 56t-56 136t56 136t136 56t136 -56t56 -136t-56 -136t-136 -56z" />
<glyph unicode="&#xe104;" d="M256 480q-106 0 -181 -75t-75 -181t75 -181t181 -75t181 75t75 181t-75 181t-181 75zM384 192h-160v192h64v-128h96v-64z" />
<glyph unicode="&#xe105;" d="M288 256h64v-64h-128v128h64v-64zM448 224q0 52 -26 96.5t-70 69.5v90h-192v-90q-44 -25 -70 -69.5t-26 -96.5t26 -96.5t70 -69.5v-90h192v90q44 25 70 69.5t26 96.5zM256 96q-53 0 -90.5 37.5t-37.5 90.5t37.5 90.5t90.5 37.5t90.5 -37.5t37.5 -90.5t-37.5 -90.5 t-90.5 -37.5z" />
<glyph unicode="&#xe106;" d="M256 416q-80 0 -136 -56t-56 -136t56 -136t136 -56t136 56t56 136t-56 136t-136 56zM256 480q106 0 181 -75t75 -181t-75 -181t-181 -75t-181 75t-75 181t75 181t181 75zM311 256q-8 15 -23 23v105h-64v-105q-32 -18 -32 -55q0 -27 18.5 -45.5t45.5 -18.5q37 0 55 32h73 v64h-73zM256 192q-13 0 -22.5 9.5t-9.5 22.5t9.5 22.5t22.5 9.5t22.5 -9.5t9.5 -22.5t-9.5 -22.5t-22.5 -9.5z" />
<glyph unicode="&#xe107;" d="M240 448q-99 0 -169.5 -70.5t-70.5 -169.5t70.5 -169.5t169.5 -70.5t169.5 70.5t70.5 169.5t-70.5 169.5t-169.5 70.5zM240 0q-86 0 -147 61t-61 147t61 147t147 61t147 -61t61 -147t-61 -147t-147 -61zM256 253v131h-32v-131q-14 -5 -23 -17.5t-9 -27.5q0 -20 14 -34 t34 -14q15 0 27.5 9t17.5 23h99v32h-99q-7 22 -29 29z" />
<glyph unicode="&#xe108;" d="M240 448q-99 0 -169.5 -70.5t-70.5 -169.5t70.5 -169.5t169.5 -70.5t169.5 70.5t70.5 169.5t-70.5 169.5t-169.5 70.5zM384 192h-99q-5 -14 -17.5 -23t-27.5 -9q-20 0 -34 14t-14 34q0 15 9 27.5t23 17.5v131h32v-131q22 -7 29 -29h99v-32z" />
<glyph unicode="&#xe109;" d="M288 205l55 -54l-46 -46l-73 74v109h64v-83zM416 448q40 0 68 -28t28 -68q0 -50 -41 -79q-17 47 -52 82t-82 52q29 41 79 41zM175 407q-47 -17 -82 -52t-52 -82q-41 29 -41 79q0 40 28 68t68 28q50 0 79 -41zM256 384q-80 0 -136 -56t-56 -136q0 -69 44 -122l-12 -102h32 l32 58q44 -26 96 -26t96 26l32 -58h32l-12 102q44 53 44 122q0 80 -56 136t-136 56zM256 64q-53 0 -90.5 37.5t-37.5 90.5t37.5 90.5t90.5 37.5t90.5 -37.5t37.5 -90.5t-37.5 -90.5t-90.5 -37.5z" />
<glyph unicode="&#xe10a;" d="M256 416q-93 0 -158.5 -65.5t-65.5 -158.5t65.5 -158.5t158.5 -65.5t158.5 65.5t65.5 158.5t-65.5 158.5t-158.5 65.5zM256 12q-75 0 -127.5 52.5t-52.5 127.5t52.5 127.5t127.5 52.5t127.5 -52.5t52.5 -127.5t-52.5 -127.5t-127.5 -52.5zM467 336q13 22 13 48 q0 40 -28 68t-68 28q-47 0 -76 -37q101 -21 159 -107zM204 443q-29 37 -76 37q-40 0 -68 -28t-28 -68q0 -26 13 -48q58 86 159 107zM224 320h32v-160h-32v160zM256 192h96v-32h-96v32z" />
<glyph unicode="&#xe10b;" d="M513 80q0 40 -13.5 67.5t-32 42t-37.5 28t-32 34.5t-13 52q0 14 -3 24q-6 42 -32 73.5t-63 42.5q1 3 1 6q0 12 -9.5 21t-22.5 9t-22.5 -9t-9.5 -21q0 -3 1 -6q-42 -12 -69 -50t-28 -87v-3q0 -26 -9.5 -45.5t-23.5 -30.5t-31 -24t-31 -26.5t-23.5 -38.5t-9.5 -59 q0 -28 56.5 -50t142.5 -28q19 -34 57 -34t57 34q86 6 142.5 28t56.5 50h1zM413 53q-41 -11 -93 -15q-2 24 -20.5 41t-43.5 17t-43.5 -17t-20.5 -41q-52 4 -93 15q-45 12 -62 27q17 15 62 27q67 18 157 18t157 -18q45 -12 62 -27q-17 -15 -62 -27z" />
<glyph unicode="&#xe10c;" d="M512 64q-40 0 -68 28t-28 68v143q0 52 -36.5 92t-91.5 50v35h-64v-35q-55 -10 -91.5 -50t-36.5 -92v-143q0 -40 -28 -68t-68 -28v-32h215q-4 -9 -4 -19q0 -18 13 -31.5t32 -13.5t32 13.5t13 31.5q0 10 -4 19h215v32z" />
<glyph unicode="&#xe10d;" d="M512 64q-40 0 -68 28t-28 68v143q0 52 -36.5 92t-91.5 50v35h-64v-35q-55 -10 -91.5 -50t-36.5 -92v-143q0 -40 -28 -68t-68 -28v-32h215q-4 -9 -4 -19q0 -18 13 -31.5t32 -13.5t32 13.5t13 31.5q0 10 -4 19h215v32zM352 192h-64v-64h-64v64h-64v64h64v64h64v-64h64v-64z " />
<glyph unicode="&#xe10e;" d="M512 64q-40 0 -68 28t-28 68v143q0 52 -36.5 92t-91.5 50v35h-64v-35q-55 -10 -91.5 -50t-36.5 -92v-143q0 -40 -28 -68t-68 -28v-32h215q-4 -9 -4 -19q0 -18 13 -31.5t32 -13.5t32 13.5t13 31.5q0 10 -4 19h215v32zM352 192h-192v64h192v-64z" />
<glyph unicode="&#xe10f;" d="M512 64q-40 0 -68 28t-28 68v143q0 52 -36.5 92t-91.5 50v35h-64v-35q-55 -10 -91.5 -50t-36.5 -92v-143q0 -40 -28 -68t-68 -28v-32h215q-4 -9 -4 -19q0 -18 13 -31.5t32 -13.5t32 13.5t13 31.5q0 10 -4 19h215v32zM224 110l-77 103l23 23l54 -38l123 108l24 -24z" />
<glyph unicode="&#xe110;" d="M512 64q-40 0 -68 28t-28 68v143q0 52 -36.5 92t-91.5 50v35h-64v-35q-55 -10 -91.5 -50t-36.5 -92v-143q0 -40 -28 -68t-68 -28v-32h215q-4 -9 -4 -19q0 -18 13 -31.5t32 -13.5t32 13.5t13 31.5q0 10 -4 19h215v32zM352 128h-39l-57 57l-57 -57h-39v39l57 57l-57 57v39 h39l57 -57l57 57h39v-39l-57 -57l57 -57v-39z" />
<glyph unicode="&#xe111;" d="M256 383v33h64v32q0 13 -9.5 22.5t-22.5 9.5h-96q-13 0 -22.5 -9.5t-9.5 -22.5v-32h64v-33q-81 -6 -136.5 -65.5t-55.5 -141.5q0 -86 61 -147t147 -61t147 61t61 147q0 82 -55.5 141.5t-136.5 65.5zM353 63q-47 -47 -113 -47t-113 47t-47 113t47 113q45 45 108 47 l-11 -157q-1 -19 16 -19t16 19l-11 157q63 -2 108 -47q47 -47 47 -113t-47 -113z" />
<glyph unicode="&#xe112;" d="M0 0q0 -13 9.5 -22.5t22.5 -9.5h448q13 0 22.5 9.5t9.5 22.5v288h-512v-288zM352 256h128v-64h-128v64zM352 160h128v-64h-128v64zM352 64h128v-64h-128v64zM192 256h128v-64h-128v64zM192 160h128v-64h-128v64zM192 64h128v-64h-128v64zM32 256h128v-64h-128v64zM32 160 h128v-64h-128v64zM32 64h128v-64h-128v64zM480 416h-64v46q0 7 -4.5 12.5t-11.5 5.5t-11.5 -5.5t-4.5 -12.5v-46h-256v46q0 7 -4.5 12.5t-11.5 5.5t-11.5 -5.5t-4.5 -12.5v-46h-64q-13 0 -22.5 -9.5t-9.5 -22.5v-64h512v64q0 13 -9.5 22.5t-22.5 9.5zM112 336 q-13 0 -22.5 9.5t-9.5 22.5q0 18 16 28v-28q0 -7 4.5 -11.5t11.5 -4.5t11.5 4.5t4.5 11.5v28q16 -10 16 -28q0 -13 -9.5 -22.5t-22.5 -9.5zM400 336q-13 0 -22.5 9.5t-9.5 22.5q0 18 16 28v-28q0 -7 4.5 -11.5t11.5 -4.5t11.5 4.5t4.5 11.5v28q16 -10 16 -28 q0 -13 -9.5 -22.5t-22.5 -9.5z" />
<glyph unicode="&#xe113;" d="M160 288h64v-64h-64v64zM256 288h64v-64h-64v64zM352 288h64v-64h-64v64zM64 96h64v-64h-64v64zM160 96h64v-64h-64v64zM256 96h64v-64h-64v64zM160 192h64v-64h-64v64zM256 192h64v-64h-64v64zM352 192h64v-64h-64v64zM64 192h64v-64h-64v64zM416 480v-32h-64v32h-224 v-32h-64v32h-64v-512h480v512h-64zM448 0h-416v352h416v-352z" />
<glyph unicode="&#xe114;" d="M64 320h32v-32h-32v32zM128 320h32v-32h-32v32zM192 320h32v-32h-32v32zM256 320h32v-32h-32v32zM320 320h32v-32h-32v32zM384 320h32v-32h-32v32zM64 256h32v-32h-32v32zM128 256h32v-32h-32v32zM192 256h32v-32h-32v32zM256 256h32v-32h-32v32zM320 256h32v-32h-32v32z M384 256h32v-32h-32v32zM64 192h32v-32h-32v32zM128 192h32v-32h-32v32zM192 192h32v-32h-32v32zM256 192h32v-32h-32v32zM320 192h32v-32h-32v32zM384 192h32v-32h-32v32zM64 128h32v-32h-32v32zM128 128h32v-32h-32v32zM192 128h32v-32h-32v32zM256 128h32v-32h-32v32z M320 128h32v-32h-32v32zM384 128h32v-32h-32v32zM64 64h32v-32h-32v32zM128 64h32v-32h-32v32zM192 64h32v-32h-32v32zM256 64h32v-32h-32v32zM320 64h32v-32h-32v32zM384 64h32v-32h-32v32zM416 448v32h-64v-64h-32v32h-160v-32h-32v64h-64v-32h-64v-480h480v480h-64z M448 0h-416v352h416v-352z" />
<glyph unicode="&#xe115;" d="M416 384h-32v-64h-96v64h-96v-64h-96v64h-32q-13 0 -22.5 -9.5t-9.5 -22.5v-352q0 -13 9.5 -22.5t22.5 -9.5h352q13 0 22.5 9.5t9.5 22.5v352q0 13 -9.5 22.5t-22.5 9.5zM128 0h-64v64h64v-64zM128 96h-64v64h64v-64zM128 192h-64v64h64v-64zM224 0h-64v64h64v-64z M224 96h-64v64h64v-64zM224 192h-64v64h64v-64zM320 0h-64v64h64v-64zM320 96h-64v64h64v-64zM320 192h-64v64h64v-64zM416 0h-64v64h64v-64zM416 96h-64v64h64v-64zM416 192h-64v64h64v-64zM160 416q0 7 -4.5 11.5t-11.5 4.5t-11.5 -4.5t-4.5 -11.5v-64h32v64zM352 416 q0 7 -4.5 11.5t-11.5 4.5t-11.5 -4.5t-4.5 -11.5v-64h32v64z" />
<glyph unicode="&#xe116;" d="M448 416h-48v-16q0 -13 -9.5 -22.5t-22.5 -9.5t-22.5 9.5t-9.5 22.5v16h-160v-16q0 -13 -9.5 -22.5t-22.5 -9.5t-22.5 9.5t-9.5 22.5v16h-48q-13 0 -22.5 -9.5t-9.5 -22.5v-352q0 -13 9.5 -22.5t22.5 -9.5h384q13 0 22.5 9.5t9.5 22.5v352q0 13 -9.5 22.5t-22.5 9.5z M448 32h-384v288h384v-288zM144 384q7 0 11.5 4.5t4.5 11.5v64q0 7 -4.5 11.5t-11.5 4.5t-11.5 -4.5t-4.5 -11.5v-64q0 -7 4.5 -11.5t11.5 -4.5zM368 384q7 0 11.5 4.5t4.5 11.5v64q0 7 -4.5 11.5t-11.5 4.5t-11.5 -4.5t-4.5 -11.5v-64q0 -7 4.5 -11.5t11.5 -4.5zM288 288 h-160v-32h128v-64h-128v-32h128v-64h-128v-32h160v224zM352 64h32v224h-64v-32h32v-192zM436 -12h-360q-14 0 -23 7.5t-9 20.5v-16q0 -13 9.5 -22.5t22.5 -9.5h360q13 0 22.5 9.5t9.5 22.5v16q0 -13 -9 -20.5t-23 -7.5z" />
<glyph unicode="&#xe117;" d="M510 96l-12 224q-1 13 -11 22.5t-23 9.5h-80v128h-256v-128h-80q-13 0 -23 -9.5t-11 -22.5l-12 -224q-1 -13 8 -22.5t22 -9.5h70l-38 -96h384l-38 96h70q13 0 22 9.5t8 22.5zM160 448h192v-96h-192v96zM111 0l39 96h212l39 -96h-290zM448 256h-32v64h32v-64z" />
<glyph unicode="&#xe118;" d="M128 448h256v-64h-256v64zM480 352h-448q-13 0 -22.5 -9.5t-9.5 -22.5v-160q0 -13 9.5 -22.5t22.5 -9.5h96v-128h256v128h96q13 0 22.5 9.5t9.5 22.5v160q0 13 -9.5 22.5t-22.5 9.5zM352 32h-192v160h192v-160zM487 304q0 -10 -6.5 -16.5t-16.5 -6.5t-16.5 6.5t-6.5 16.5 t6.5 16.5t16.5 6.5t16.5 -6.5t6.5 -16.5z" />
<glyph unicode="&#xe119;" d="M448 192v-128h-384v128h-64v-192h512v192h-64zM416 448h-320v-352h320v352zM352 160h-192v32h192v-32zM352 256h-192v32h192v-32zM352 352h-192v32h192v-32z" />
<glyph unicode="&#xe11a;" d="M320 441v-153h-128v153q-96 -23 -96 -89v-212q0 -58 47 -99t113 -41t113 41t47 99v212q0 66 -96 89zM288 446q-17 2 -32 2t-32 -2v-126h64v126z" />
<glyph unicode="&#xe11b;" d="M398 162l-77 128q-27 44 -76.5 57.5t-94.5 -11.5q-22 39 -22 64q0 38 22 49q3 1 5 4q12 11 0 22q-8 9 -19 3q-40 -20 -40 -78q0 -35 27 -83q-32 -30 -38.5 -74.5t16.5 -84.5l77 -128q18 -29 47.5 -45.5t62.5 -16.5q35 0 66 18q45 28 58 79t-14 97zM236 182q-7 -4 -15 -4 q-15 0 -23 13l-37 57q-6 10 -3.5 21t12 17t21 4t17.5 -12l37 -58q6 -9 3.5 -20.5t-12.5 -17.5z" />
<glyph unicode="&#xe11c;" d="M240 448q-29 0 -59 -7t-57.5 -30t-27.5 -59v-212q0 -58 42 -99t102 -41t102 41t42 99v212q0 36 -27.5 59t-57.5 30t-59 7zM352 140q0 -44 -32 -76q-16 -15 -36 -23q-21 -9 -44 -9t-44 9q-20 8 -36 23q-32 32 -32 76v116h224v-116zM352 288h-96v128q33 -3 60 -16 q18 -8 27 -20t9 -28v-64z" />
<glyph unicode="&#xe11d;" d="M240 448q-21 0 -43.5 -4.5t-46 -14.5t-39 -30t-15.5 -47v-212q0 -58 42 -99t102 -41t102 41t42 99v212q0 27 -15.5 47t-39 30t-46 14.5t-43.5 4.5zM128 352q0 16 9 28t27 20q27 13 60 16v-128h-96v64zM352 140q0 -44 -32 -76q-16 -15 -36 -23q-21 -9 -44 -9t-44 9 q-20 8 -36 23q-32 32 -32 76v116h224v-116z" />
<glyph unicode="&#xe11e;" horiz-adv-x="576" d="M544 416h-512q-13 0 -22.5 -9.5t-9.5 -22.5v-320q0 -13 9.5 -22.5t22.5 -9.5h512q13 0 22.5 9.5t9.5 22.5v320q0 13 -9.5 22.5t-22.5 9.5zM320 352h64v-64h-64v64zM416 256v-64h-64v64h64zM224 352h64v-64h-64v64zM320 256v-64h-64v64h64zM128 352h64v-64h-64v64z M224 256v-64h-64v64h64zM64 352h32v-64h-32v64zM64 256h64v-64h-64v64zM96 96h-32v64h32v-64zM384 96h-256v64h256v-64zM512 96h-96v64h96v-64zM512 192h-64v64h64v-64zM512 288h-96v64h96v-64z" />
<glyph unicode="&#xe11f;" d="M448 352h-416q-13 0 -22.5 -9.5t-9.5 -22.5v-224q0 -13 9.5 -22.5t22.5 -9.5h416q13 0 22.5 9.5t9.5 22.5v224q0 13 -9.5 22.5t-22.5 9.5zM448 96h-416v224h416v-224zM128 160h224v-32h-224v32zM352 224h32v-32h-32v32zM288 224h32v-32h-32v32zM224 224h32v-32h-32v32z M160 224h32v-32h-32v32zM96 224h32v-32h-32v32zM320 288h32v-32h-32v32zM384 288h32v-32h-32v32zM256 288h32v-32h-32v32zM192 288h32v-32h-32v32zM128 288h32v-32h-32v32zM64 288h32v-32h-32v32z" />
<glyph unicode="&#xe120;" d="M0 448v-320h512v320h-512zM480 160h-448v256h448v-256zM336 96h-160l-16 -64l-32 -32h256l-32 32z" />
<glyph unicode="&#xe121;" d="M0 448v-320h512v320h-512zM480 160h-448v256h448v-256zM336 96h-160l-16 -64l-32 -32h256l-32 32zM48 252h416v-8h-416v8zM48 268h416v-8h-416v8zM48 236h416v-8h-416v8zM48 284h416v-8h-416v8zM48 220h416v-8h-416v8zM48 188h416v-8h-416v8zM48 204h416v-8h-416v8z M48 380h416v-8h-416v8zM48 300h416v-8h-416v8zM48 364h416v-8h-416v8zM48 396h416v-8h-416v8zM48 316h416v-8h-416v8zM48 332h416v-8h-416v8zM48 348h416v-8h-416v8z" />
<glyph unicode="&#xe122;" d="M48 244h285l-14 8h-271v-8zM48 260h257l-14 8h-243v-8zM48 276h229l-14 8h-215v-8zM48 292h201l-14 8h-187v-8zM48 228h313l-14 8h-299v-8zM48 212h341l-14 8h-327v-8zM48 196h369l-14 8h-355v-8zM48 388h33l-14 8h-19v-8zM48 188v-8h397l-14 8h-383zM48 372h61l-14 8 h-47v-8zM48 356h89l-14 8h-75v-8zM48 324h145l-14 8h-131v-8zM48 340h117l-14 8h-103v-8zM48 308h173l-14 8h-159v-8zM0 448v-320h512v320h-512zM480 160h-448v256h448v-256zM336 96h-160l-16 -64l-32 -32h256l-32 32z" />
<glyph unicode="&#xe123;" d="M512 64v384h-512v-384h224v-32h-96v-32h256v32h-96v32h224zM64 384h384v-256h-384v256z" />
<glyph unicode="&#xe124;" d="M448 128v256q0 13 -9.5 22.5t-22.5 9.5h-320q-13 0 -22.5 -9.5t-9.5 -22.5v-256h-64v-96h512v96h-64zM320 64h-128v32h128v-32zM416 128h-320v256h320v-256z" />
<glyph unicode="&#xe125;" d="M368 480h-224q-20 0 -34 -14t-14 -34v-416q0 -20 14 -34t34 -14h224q20 0 34 14t14 34v416q0 20 -14 34t-34 14zM192 456h128v-16h-128v16zM256 0q-13 0 -22.5 9.5t-9.5 22.5t9.5 22.5t22.5 9.5t22.5 -9.5t9.5 -22.5t-9.5 -22.5t-22.5 -9.5zM384 96h-256v320h256v-320z " />
<glyph unicode="&#xe126;" d="M384 480h-288q-13 0 -22.5 -9.5t-9.5 -22.5v-448q0 -13 9.5 -22.5t22.5 -9.5h288q13 0 22.5 9.5t9.5 22.5v448q0 13 -9.5 22.5t-22.5 9.5zM240 -9q-10 0 -17.5 7.5t-7.5 17.5t7.5 17.5t17.5 7.5t17.5 -7.5t7.5 -17.5t-7.5 -17.5t-17.5 -7.5zM384 64h-288v352h288v-352z " />
<glyph unicode="&#xe127;" d="M400 480h-320q-20 0 -34 -14t-14 -34v-416q0 -20 14 -34t34 -14h320q20 0 34 14t14 34v416q0 20 -14 34t-34 14zM240 -16q-7 0 -11.5 4.5t-4.5 11.5t4.5 11.5t11.5 4.5t11.5 -4.5t4.5 -11.5t-4.5 -11.5t-11.5 -4.5zM384 32h-288v384h288v-384z" />
</font>
</defs>
</svg>
